Oops.. Este post tiene los enlaces eliminados!

Identi revisa las denuncias de los usuarios en busca de enlaces eliminados que no dejan descargar los archivos, este mensaje te informa que este post que estas viendo tiene los enlaces eliminados.

Usa el Buscador

Por favor, te recomendamos que uses el buscador para encontrar más alternativas.

[+18] Cold Fish [DVDRip] [2010] Cine Nipon

  • Categoría: Reciclaje
  • Publicado hace más de 4 años


Gran pelicula de dos horas y media, mezcla de drama y thriller basado en una historia real. Su finalidad pareciera ser tensionar al espectador por medio del personaje principal, Shamoto, el cual sufrirá internamente sin parar durante una semana. Pues eso es todo con esta pelicula termine de postear la Saga del odio si aun no ven los otros post se los dejo hasta abajo, los nombre son Love Exposurey Guilty of Romance. Si quieren mas peliculas de este tipo comenten diganme cual quieren y vere si puedo conseguirlas. Espero disfruten y sea de su agrado.





Shamoto tiene una pequeña tienda de peces tropicales que le permite una aburrida pero estable vida. Su segunda esposa Taeko, no se lleva muy bien con su hija Mitsuko, y eso le preocupa. Además, él también se siente de algún modo incompleto e insatisfecho con la vida que tiene. Un día, Mitsuko es sorprendida robando en un almacén. Allí se encontrará con un amable hombre llamado Murata que la ayudará a calmar las cosas entre ella y el director de la tienda. Murata también es dueño de una tienda de peces, y entre ellos nacerá una amistad. Mitsuko empezará a trabajar para Murata y vivir en su casa para evitar conflictos con su madrastra. Todo parece perfecto, pero Shamoto hará un sorprendente descubrimiento que puede cambiarlo todo.
(FILMAFFINITY)



TÍTULO ORIGINAL Tsumetai nettaigyo (Cold Fish)
AÑO 2010
DURACIÓN 144 min.
GÉNERO Drama. Thriller | Basado en hechos reales

PAÍS  Japon
DIRECTOR Sion Sono.
GUIÓN Sion Sono.
MÚSICA Tomohide Harada
FOTOGRAFÍA Shinya Kimura
REPARTO Denden,  Mitsuru Fukikoshi,  Megumi Kagurazaka,  Hikari Kajiwara,  Asuka Kurosawa,  Tetsu Watanabe
PRODUCTORA Nikkatsu / Stairway




Disculpen si el video no esta subtitulado en español pero es dificil encontrarlos

Si el video no se puede ver dale clic AQUI para verlo en YoTube





 Format : AVI
 Format/Info : Audio Video Interleave
 File size : 1 016 MiB
 Duration : 2h 26mn

 Overall bit rate : 972 Kbps
  Video #0
 ID : 0
 Format : MPEG-4 Visual
 Format profile : Advanced [email protected]
 Format settings, BVOP : 2
 Format settings, QPel : No
 Format settings, GMC : No warppoints
 Format settings, Matrix : Default (H.263)
    Codec ID : XVID
 Codec ID/Hint : XviD
 Duration : 2h 26mn
 Bit rate : 839 Kbps
Width : 720 pixels
 Height : 384 pixels

 Display aspect ratio : 1.875
 Frame rate : 23.976 fps
    Color space : YUV
 Chroma subsampling : 4:2:0
 Bit depth : 8 bits
 Scan type : Progressive
 Compression mode : Lossy
 Bits/(Pixel*Frame) : 0.126
 Stream size : 877 MiB (86%)
 Writing library : XviD 1.2.1 (UTC 2008-12-04)
  Audio #1
 ID : 1
Format : MPEG Audio
 Format version : Version 1
 Format profile : Layer 3
    Mode : Joint stereo
 Mode extension : MS Stereo
 Codec ID : 55
 Codec ID/Hint : MP3
 Duration : 2h 26mn
 Bit rate mode : Constant
Bit rate : 128 Kbps
 Channel(s) : 2 channels

 Sampling rate : 48.0 KHz
 Compression mode : Lossy
 Stream size : 134 MiB (13%)
 Alignment : Aligned on interleaves
 Interleave, duration : 167 ms (4.00 video frames)
 Interleave, preload duration : 216 ms
 Title : Cold.Fish.2011.Bluray.720p.DTS.x264-LooKMaNe - [2] Japanese_audio
    Writing library : LAME3.98r
 Encoding settings : -m j -V 4 -q 2 -lowpass 17 -b 128

Language : Japanese
 Subtittles : Spanish













Contraseña: sper91

Enlaces De Descarga




Ciudad de dios
Sucker Punch Extended Cut
The Divide
Pretty Little Liars Temp 1
PrettyLittle Liars Temp 2
The Deep Blue See
Pack de Incribles Wallpapers del espacio
Ballet Shoes
Guilty Of Romance
Love Exposure



[+18] Cold Fish [DVDRip] [2010] Cine Nipon
35 Puntos Score: 7/10
Visitas: 6332 Favoritos: 14
Ver los usuarios que votaron...
18 Comentarios [+18] Cold Fish [DVDRip] [2010] Cine Nipon
   gracias por el aporte se ve interesante!! saludos  
@inoue Gracias por pasar, comentar y los puntos
se ve buena a fav graxias men buen post  
Gracias capo  
@juan1300 @Ukobach @Fachax  Gracias por pasar. Y por los puntos Fachax
voy a ver que onda!
bajado buena calidad, lo pueden bajar.
descargando gracias
Acabo de verla y todav?
@locoyou Verdad que es muy buena jeje yo igual cuando la vi la emocion me duro unos dias
Hola 1 pregunta los subtitulos estan pegados al video o separados?
Disculpa por la molestia (:
No es molestia amigo, estan separados, si no los puedes visualizar te recomiendo instalar virtualdub que es el codec de los subtitulos para verlos en cualquier reproductor
Gracias ok yo utilizo vlc. Gracias por la peli (:
pero creeo que se los a?
gracias por la peli he descargado todos los ficheros pero tengo un problema con la parte 4 te agradeceria que la verificaras  
@l0rd La comprove amigo y me salio bien. Todos mis aportes llevan registro de recupersion, con el winrar abierto ve al men?
gracias por la ayuda
Gran pelicula de este director japones, junto con Miike los mejores  
Para dejar un comentario Registrate! o.. eres ya usuario? Accede!