Oops.. Este post tiene los enlaces eliminados!

Identi revisa las denuncias de los usuarios en busca de enlaces eliminados que no dejan descargar los archivos, este mensaje te informa que este post que estas viendo tiene los enlaces eliminados.

Usa el Buscador

Por favor, te recomendamos que uses el buscador para encontrar más alternativas.

+18 Guilty Of Romance [2011] [DVDRip] Cine japones

  • Categoría: Reciclaje
  • Publicado hace más de 4 años

Un drama Psicologico que a mi en lo personal me gusto bastante
Cito un comentario de otra persona que describe muy bien mi opinion sobre la pelicula.


"El controvertido director Sion Sono consigue que su propuesta sea una de las películas más atrevidas y arriesgadas, sin llegar a ser una película de género fantástico, crea una atmósfera que si se mueve por esas tesituras. Este año pone punto final a su denominada saga del odio, formada por Love Exposure, Cold Fish y la actual Guilty of Romance.
La historia que nos confecciona Sion Sono se presenta en cinco actos y nos muestra de forma evolutiva una degradación personal. De forma sutil, nos ofrece pequeños detalles que contienen una intensidad desmesurada, en conjunto trabajan una idea que se desarrolla durante toda la película. Más allá de la narrativa convencional se nos deleitará, a través de un atractivo tratamiento cromático, una romántica depravación visual. Una trabajada mezcla de géneros nos sacude de forma constante, con toques de humor negro, erotismo, thriller y arrebatos de terror psicológico desconcertante, hacen de Guilty of Romance una intensa experiencia que no deja indiferente."
Orlok (Los Criticonos)
Continuacion del comentario
Cita: Mostrar





Izumi es la esposa de un exitoso escritor. Su día a día pasa por una  cotidiana rutina y por una relación sin pasión. Un día, Izumi comienza a trabajar en un supermercado vendiendo salchichas; otro, termina involucrándose en una película pornográfica; y finalmente, comienza a ejercer de prostituta. Mientras ella se sumerge en una espiral de sexualidad irrefrenable, un cadáver aparece en el barrio de los hoteles del amor. Nueva muestra de amor, crimen, sexo y sangre de Sion Sono, y con la que según la productora pondría punto final a la "Saga del odio", que formarían Love Exposure, Cold fish (Pronto las subire) y esta Guilty of Romance.
(FILMAFFINITY)



TÍTULO ORIGINAL Koi No Tsumi (Guilty Of Romance) (Guilty by Romance)
AÑO 2011
DURACIÓN 112 min.
GÉNERO Thriller. Drama | Prostitución. Crimen

PAÍS  Japon
DIRECTOR Sion Sono.
GUIÓN Sion Sono.
MÚSICA Yasuhiro Morinaga
FOTOGRAFÍA Sôhei Tanikawa
REPARTO Miki Mizuno,  Makoto Togashi,  Megumi Kagurazaka,  Kanji Tsuda,  Kazuya Kojima
PRODUCTORA Nikkatsu
PREMIOS 2011: Festival de Sitges: Sección oficial largometrajes a concurso





Si el video no se puede ver dale clic AQUI para verlo en YoTube




Format : AVI
Format/Info : Audio Video Interleave
File size : 797 MiB
Duration : 1h 53mn

Overall bit rate : 984 Kbps
Writing application : VirtualDubMod 1.5.10.2 (build 2542/release)
Writing library : VirtualDubMod build 2542/release
Video #0
ID : 0
Format : MPEG-4 Visual
Format profile : Advanced [email protected]
Format settings, BVOP : No
Format settings, QPel : Yes
Format settings, GMC : No warppoints
Format settings, Matrix : Default (H.263)
Codec ID : XVID
Codec ID/Hint : XviD
Duration : 1h 53mn
Bit rate : 656 Kbps
Width : 720 pixels
Height : 384 pixels

Display aspect ratio : 1.875
Frame rate : 23.976 fps
Color space : YUV
Chroma subsampling : 4:2:0
Bit depth : 8 bits
Scan type : Progressive
Compression mode : Lossy
Bits/(Pixel*Frame) : 0.099
Stream size : 532 MiB (67%)
Writing library : XviD 62
Audio #1
ID : 1
Format : AC-3
Format/Info : Audio Coding 3
Mode extension : CM (complete main)
Codec ID : 2000
Duration : 1h 53mn
Bit rate mode : Constant
Bit rate : 320 Kbps
Channel(s) : 2 channels

Channel positions : Front: L R
Sampling rate : 48.0 KHz
Bit depth : 16 bits
Compression mode : Lossy
Stream size : 259 MiB (33%)
Alignment : Split accross interleaves
Interleave, duration : 64 ms (1.53 video frames)
Interleave, preload duration : 500 ms

   Language : Japanise
Subtittle : Spanish









Enlaces De Descarga

sper91





Ciudad de dios
Sucker Punch Extended Cut
The Divide
Pretty Little Liars Temp 1
PrettyLittle Liars Temp 2
The Deep Blue See
Pack de Incribles Wallpapers del espacioBallet Shoes



+18 Guilty Of Romance [2011] [DVDRip] Cine japones
20 Puntos Score: 6.7/10
Visitas: 6247 Favoritos: 8
Ver los usuarios que votaron...
23 Comentarios +18 Guilty Of Romance [2011] [DVDRip] Cine japones
Amo el cine asiatico y esta aun no la he visto se ve bueno.,descargando gracias
@otaku_20 De nada amigo espero que la disfrutes. Yo se que por las capturas puede parecer algo sosa pero realmente esta muy buena.
Gracias por el aporte amigo  
ya lei algo de este tipo, lo bajo.
Se ve buena, bajando...
Gracias  
Pregunta es una trilogia o las otras 2 nada que ver.
@alexo Espero sea de tu agrado bro

@Compiler las tramas son completamente independientes de las otras. La vdd no tengo idea de por que sea llamada saga del odio.

En unas horas posteare la primer pelicula "Love Exposure" y mas tarde la segunda "Cold Fish" Porsi les interesa verlas
wow c ve muy interesante la pelicula grax men saludos
@Mundo Es altamente buena hay partes que realmente son algo locas y desqusiantes pero es una buena pelicula de Drama y Terror Psicologico
Acabo de verla y tengo que decir que no me ha impactado tanto como "Cold Fish" (normal   ) pero consigue crear una atm?
@locoyou Yo cuando vi esta si me impacto por la forma en que izumi (me acuerdo mas de los personajes que de sus nombres reales ) se degrada a si misma y la locura de la mitsuco y que decir de la abuela
no funcionan los links, arreglalo por favor.
A siii,perdon por no haberla visto antes,ahora voy a poder verla!!! Gracias como siempre.
GRACIAS AMIGO  
@HYAKIMARU Gracias a ti por pasar, ya ando resubiendo la peli te aviso cuando la tenga saludos
Gracias por tu aporte un favor podr?
hola amigo podrias volver a subir los links tienen problemas para descargar muchas gracias por el aporte!!!!
hola amigo podrias resubirla a otro servidor porfavor como 4shared o billionuoload  
hola oye podrias resubirla GRACIAS
Para dejar un comentario Registrate! o.. eres ya usuario? Accede!