Oops.. Este post tiene los enlaces eliminados!

Identi revisa las denuncias de los usuarios en busca de enlaces eliminados que no dejan descargar los archivos, este mensaje te informa que este post que estas viendo tiene los enlaces eliminados.

Usa el Buscador

Por favor, te recomendamos que uses el buscador para encontrar más alternativas.

Ballet Shoes (2007) DVDRip Emma Watson

  • Categoría: Reciclaje
  • Publicado hace más de 4 años






Londres, 1930. Tres niñas huérfanas, Pauline, Petrova y Posy Fossil, son adoptadas por un excéntrico explorador, el profesor Gum. Las niñas ven ahora una oportunidad de cumplir sus sueños: Pauline quiere ser actriz, Petrova aviadora y Posy bailarina. Todo cambia cuando Gum desaparece, abandonando a las jóvenes a su suerte y dejándolas sin dinero para sobrevivir.
(FILMAFFINITY)



TÍTULO ORIGINAL Ballet Shoes
AÑO 2007
DURACIÓN 90 min.
GÉNERO Drama | Cine familiar. Ballet

PAÍS  Reino Unido
DIRECTOR Sandra Goldbacher
GUIÓN Heidi Thomas (Novela: Noel Streatfeild)
MÚSICA Kevin Sargent
FOTOGRAFÍA Peter Greenhalgh
REPARTO Emma Watson,  Yasmin Paige,  Lucy Boynton,  Emilia Fox,  Victoria Wood,  Richard Griffiths,  Marc Warren,  Lucy Cohu,  Gemma Jones,  Harriet Walter,  Eileen Atkins,  Heather Nicol,  Mary Stockley
PRODUCTORA BBC / Granada Television








 Format : AVI
 Format/Info : Audio Video Interleave
 File size : 697 MiB
    Duration : 1h 24mn

 Overall bit rate : 1 156 Kbps
 Writing application : VirtualDubMod 1.5.10.2 (build 2540/release)
 Writing library : VirtualDubMod build 2540/release
 Video #0
 ID : 0
 Format : MPEG-4 Visual
 Format profile : Advanced [email protected]
 Format settings, BVOP : 2
 Format settings, QPel : No
 Format settings, GMC : No warppoints
 Format settings, Matrix : Default (H.263)
    Muxing mode : Packed bitstream
 Codec ID : XVID
 Codec ID/Hint : XviD
 Duration : 1h 24mn
 Bit rate : 1 010 Kbps
Width : 640 pixels
 Height : 352 pixels

 Display aspect ratio : 16:9
 Frame rate : 25.000 fps
 Color space : YUV
 Chroma subsampling : 4:2:0
 Bit depth : 8 bits
 Scan type : Progressive
 Compression mode : Lossy
 Bits/(Pixel*Frame) : 0.179
 Stream size : 609 MiB (87%)
 Writing library : XviD 1.0.3 (UTC 2004-12-20)
 Audio #1
 ID : 1
Format : MPEG Audio
 Format version : Version 1
 Format profile : Layer 3
    Mode : Joint stereo
 Codec ID : 55
 Codec ID/Hint : MP3
 Duration : 1h 24mn
 Bit rate mode : Variable
Bit rate : 128 Kbps
 Channel(s) : 2 channels
 Sampling rate : 48.0 KHz

    Compression mode : Lossy
 Stream size : 80.6 MiB (12%)
 Alignment : Aligned on interleaves
 Interleave, duration : 24 ms (0.60 video frame)
 Interleave, preload duration : 500 ms

    Writing library : LAME3.90.
 Encoding settings : -m j -V 4 -q 2 -lowpass 17.6 --abr 128
Language : English
Subtittle : Spanish









Contraseña: sper91

Enlaces De Descarga



Ciudad de dios
Sucker Punch Extended Cut
The Divide
Pretty Little Liars Temp 1
PrettyLittle Liars Temp 2
The Deep Blue See
Pack de Incribles Wallpapers del espacio



Ballet Shoes (2007) DVDRip Emma Watson
0 Puntos Score: 0/10
Visitas: 4530 Favoritos: 7
20 Comentarios Ballet Shoes (2007) DVDRip Emma Watson
Gracias !!

 

Emma  
gracias se ve interesante y de ?
vete al bitore !!
jaja ntc !, gracias !.
@potterfa De nada amigo Emma es lo maximo jeje

@sakurita Pues no es mucho de epoca en la tercera captura esta vestida de esa forma por que esta grabando una pelicula, dentro de la pelicula, eso es raro jeje ntc

@hax_1000 De nada amigo.

Se agradecen los comentarios de todos  
Mil gracias.. hace mucho que quiero ver esta peli   Super!!!
bueno pero es de la ?
@Karenduu Gracias por comentar

@sakurita jajaja ok es de epoca creo que yo me confundia con medievales o de reyes y reinas
Muchas gracias por el aporte!
Los subtitulos vienen pegados o hay que descargarlos?
Saludos!
@dabrat Vienen en un .srt aparte, dentro de los archivos para descargar. Gracias por pasar y comentar
@sper91 gracias ya lo descargue  
Muchas Gracias... andaba buscando esta pel?
@motatun Gracias por pasar y comentar amigo
El link esta caido. Podr?
Cita M a i: Mostrar
Cita M a i: Mostrar
Cita sper91: Mostrar
Podrias mostrarme los link! :') Por favor! no puedo verlos!!
puedes arreglas los linck me gustaria ver la pelicula
Hola amigo, podr?
hola amigo...perdona por la molestia...pero podrias subir de nuevo esta peli...??te lo agradeceria muchisimo....saludos!!
Para dejar un comentario Registrate! o.. eres ya usuario? Accede!