Oops.. Este post tiene los enlaces eliminados!

Identi revisa las denuncias de los usuarios en busca de enlaces eliminados que no dejan descargar los archivos, este mensaje te informa que este post que estas viendo tiene los enlaces eliminados.

Usa el Buscador

Por favor, te recomendamos que uses el buscador para encontrar más alternativas.

The Deep Blue Sea 2012 BRRip

  • Categoría: Reciclaje
  • Publicado hace más de 4 años







Londres, años 50. En una sociedad puritana e intolerante, Hester Collyer (Rachel Weisz), la mujer de un juez del Tribunal Supremo (Russell Beale), y un apuesto expiloto de la RAF (Hiddleston) viven un amor imposible. (FILMAFFINITY)




TÍTULO ORIGINAL   The Deep Blue Sea
AÑO 2011 
DURACIÓN  98 min. 

PAÍS  Reino unido

GÉNERO   Drama. Romance | Drama romántico. Años 50

DIRECTOR   Terence Davies
GUIÓN   Terence Davies (Obra: Terence Rattigan)
MÚSICA   Varios
FOTOGRAFÍA   Florian Hoffmeister
REPARTO   Rachel Weisz, Tom Hiddleston, Simon Russell Beale, Ann Mitchell, Harry Hadden-Paton, Sarah Kants, Steve Conway, Jolyon Coy
PRODUCTORA   Coproducción Reino Unido-EEUU; Film4 / UK Film Council / Lipsync Productions

PREMIOS   2011: Festival de San Sebastián: Sección oficial a concurso











Format : AVI
Format/Info : Audio Video Interleave
File size : 706 MiB
Duration : 1h 38mn

Overall bit rate : 1 004 Kbps
Writing application : AbSurdiTys Hyper XviD
Writing library : VirtualDub build 34703/release
Copyright : By AbSurdiTy
Video #0
ID : 0
Format : MPEG-4 Visual
Format profile : Advanced [email protected]
Format settings, BVOP : 4
Format settings, QPel : No
Format settings, GMC : No warppoints
Format settings, Matrix : Default (H.263)
Muxing mode : Packed bitstream
Codec ID : XVID
Codec ID/Hint : XviD
Duration : 1h 38mn
Bit rate : 867 Kbps
Width : 672 pixels
Height : 368 pixels

Display aspect ratio : 16:9
Frame rate : 24.000 fps
Color space : YUV
Chroma subsampling : 4:2:0
Bit depth : 8 bits
Scan type : Progressive
Compression mode : Lossy
Bits/(Pixel*Frame) : 0.146
Stream size : 610 MiB (86%)
Writing library : XviD 64
Audio #1
ID : 1
Format : MPEG Audio
Format version : Version 1
Format profile : Layer 3
Codec ID : 55
Codec ID/Hint : MP3
Duration : 1h 38mn
Bit rate mode : Constant
Bit rate : 128 Kbps
Channel(s) : 2 channels

Sampling rate : 48.0 KHz
Compression mode : Lossy
Stream size : 90.0 MiB (13%)
Alignment : Split accross interleaves
Interleave, duration : 42 ms (1.00 video frame)
Interleave, preload duration : 500 ms
Writing library : LAMELAME_MAJOR_VERSI
Language : English
Subtitles : http://www.subdivx.com/index.php?buscar=the+deep+blue+sea&accion=5&masdesc=&subtitulos=1&realiza_b=1











3 partes de 200MB una de 98.35MB



http://www.mediafire.com/?l4l7a3psks7pxo3
Añadir extencion .txt
Contraseña : sper91





Ciudad de dios
Sucker Punch Extended Cut
The Divide
Pretty Little Liars Temp 1
PrettyLittle Liars Temp 2
The Deep Blue See


The Deep Blue Sea 2012 BRRip
10 Puntos Score: 5/10
Visitas: 4569 Favoritos: 1
Ver los usuarios que votaron...
8 Comentarios The Deep Blue Sea 2012 BRRip
Gran aporte, pero a los subtitulos aun les faltan muchas lineas!!!
y faltan los links
Cita sirmauro: Mostrar
los subs no encontre por ningun lado mas que esos nisiquiera ne ingles para traducirlos yo

Cita Wireless: Mostrar
los links estan en el spoiler

Hola amigo.
Mira te aconsejo que quites los post del Spoiler, el da problema porque ya no se mira la publicidad..
te dejo 5 solo haz un post m?
@batousai ok ahora saco los spoiler?
Cita sper91: Mostrar
Los subtitulos aun estan mal, faltan lineas y errores de traducci?
Para dejar un comentario Registrate! o.. eres ya usuario? Accede!