Oops.. Este post tiene los enlaces eliminados!

Identi revisa las denuncias de los usuarios en busca de enlaces eliminados que no dejan descargar los archivos, este mensaje te informa que este post que estas viendo tiene los enlaces eliminados.

Usa el Buscador

Por favor, te recomendamos que uses el buscador para encontrar más alternativas.

spartacus vengance cap. 10 [latino]

  • Categoría: Reciclaje
  • Publicado hace más de 4 años
spartacus vengance cap. 10 [latino]














La escasez de suministros y una fuerza romana superior amenazan con poner fin a la rebelión de Spartacus, el cual intenta reunir a sus tropas para enfrentarse al ataque final del ejército de Glaber




Format            : AVI
Format/Info         : Audio Video Interleave
File size          : 600 MiB
Duration           : 59mn 18s
Overall bit rate         : 1 415 Kbps
Movie name          : Spartacus 2x10 Wrath of the Gods
Director           : danyel_6
Writing application       : VirtualDubMod 1.5.10.2 (build 2542/release)
Writing library         : VirtualDubMod build 2542/release
Copyright          : danyel_6


Video
ID            : 0
Format            : MPEG-4 Visual
Format profile          : Advanced [email protected]
Format settings, BVOP      : 2
Format settings, QPel      : No
Format settings, GMC       : No warppoints
Format settings, Matrix       : Default (H.263)
Codec ID           : XVID
Codec ID/Hint          : XviD
Duration           : 59mn 18s
Bit rate           : 1 155 Kbps
Width            : 640 pixels
Height            : 352 pixels
Display aspect ratio       : 16:9
Frame rate          : 23.976 fps
Color space         : YUV
Chroma subsampling        : 4:2:0
Bit depth          : 8 bits
Scan type          : Progressive
Compression mode         : Lossy
Bits/(Pixel*Frame)        : 0.214
Stream size         : 490 MiB (82%)
Writing library         : XviD 1.2.1 (UTC 2008-12-04)


Audio
ID            : 1
Format            : AC-3
Format/Info         : Audio Coding 3
Mode extension          : CM (complete main)
Codec ID           : 2000
Duration           : 58mn 18s
Bit rate mode          : Constant
Bit rate           : 256 Kbps
Channel(s)          : 2 channels
Channel positions        : Front: L R
Sampling rate          : 48.0 KHz
Bit depth          : 16 bits
Compression mode         : Lossy
Stream size         : 107 MiB (18%)
Alignment          : Split accross interleaves
Interleave, duration       : 49 ms (1.17 video frame)
Interleave, preload duration     : 528 ms






















http://www.identi.li


spartacus vengance cap. 10 [latino]
10 Puntos Score: 10/10
Visitas: 2700 Favoritos: 0
Ver los usuarios que votaron...
5 Comentarios spartacus vengance cap. 10 [latino]
spartacus vengeance capitulo 10 final hdtv 720p audio dual 460mb
http://www.identi.li/index.php?topic=68593
Cita digho: Mostrar
todos tus links estan caidos
ya estan arrelgados
tasando.... se agradece
men por favor podiras resubir los links de este capitulo, me hace falta solo este se t agradece  
Para dejar un comentario Registrate! o.. eres ya usuario? Accede!