Oops.. Este post tiene los enlaces eliminados!

Identi revisa las denuncias de los usuarios en busca de enlaces eliminados que no dejan descargar los archivos, este mensaje te informa que este post que estas viendo tiene los enlaces eliminados.

Usa el Buscador

Por favor, te recomendamos que uses el buscador para encontrar más alternativas.

Que paso ayer [latino]

  • Categoría: Reciclaje
  • Publicado hace más de 5 años
Que paso ayer [latino]














Dos días antes de su boda, Doug viaja en coche a Las Vegas con sus mejores amigos, Phil y Stu, y su futuro cuñado, Alan, para celebrar un fiestón de despedida. A la mañana siguiente, los tres amigos del novio se despiertan con una fuerte resaca y no recuerdan nada de lo sucedido durante la juerga nocturna. La suite del hotel está hecha un desastre y el novio no aparece por ninguna parte. Sin ninguna pista de lo sucedido y con poco tiempo que perder, los tres deben intentar recordar qué pasó la noche anterior para averiguar dónde está Doug. Pero mientras más cosas descubren, la situación empeora.


Titulo: ¿Qué pasó ayer?
Título original: The hangover
Género: Comedia
Año: 2009
País: Estados Unidos
Director: Todd Phillips
Protagonistas: Bradley Cooper, Ed Helms, Zach Galifianakis
Productores: Todd Phillips, Dan Goldberg
Guión: Jon Lucas, Scott Moore
Format            : AVI
Format/Info         : Audio Video Interleave
File size          : 705 MiB
Duration           : 1h 39mn
Overall bit rate         : 988 Kbps
Movie name          : The Hangover -
Original source form/Name      : THE_HANGOVER
Video
Format            : MPEG-4 Visual
Format profile          : [email protected]
Codec ID           : XVID
Codec ID/Hint          : XviD
Duration           : 1h 39mn
Bit rate           : 879 Kbps
Width            : 704 pixels
Height            : 296 pixels
Stream size         : 627 MiB (89%)
Writing library         : XviD 1.1.2 (UTC 2006-11-01)


Audio
ID            : 1
Format            : MPEG Audio
Format version          : Version 1
Format profile          : Layer 3
Codec ID/Hint          : MP3
Duration           : 1h 39mn
Bit rate mode          : Constant
Bit rate           : 96.0 Kbps
Channel(s)          : 2 channels
Sampling rate          : 48.0 KHz
Compression mode         : Lossy
Stream size         : 68.5 MiB (10%)
Alignment          : Aligned on interleaves
Interleave, duration       : 24 ms (0.58 video frame)
























http://www.identi.li


Que paso ayer [latino]

Peliculas en Latino - Series en latino
0 Puntos Score: 0/10
Visitas: 1343 Favoritos: 2
2 Comentarios Que paso ayer [latino]
Bien! esta pelicual es buena y dificil de conseguir, gracias.  
gracias por la peli amigo esta es muy buena y dos, para que hablar  
Para dejar un comentario Registrate! o.. eres ya usuario? Accede!