Oops.. Este post tiene los enlaces eliminados!

Identi revisa las denuncias de los usuarios en busca de enlaces eliminados que no dejan descargar los archivos, este mensaje te informa que este post que estas viendo tiene los enlaces eliminados.

Usa el Buscador

Por favor, te recomendamos que uses el buscador para encontrar más alternativas.

Pretty Little Liars [Temp 1] [350MB] [HDTV]

  • Categoría: Reciclaje
  • Publicado hace más de 4 años





Añadidos capitulos restantes







Cuatro amigas de secundaria quedan en shock cuando su líder Alison DiLaurentis misteriosamente desaparece. Después de esto, las cuatro chicas se separan y deshacen su amistad. Un año después, Alison es encontrada muerta, y las chicas se vuelven a unir debido a que alguien llamado ?A? les manda misteriosos mensajes de texto a cada una de las chicas amenazándolas con contar sus más profundos secretos, secretos que solo Alison sabia. Ahora las chicas deben descubrir quien es A, mientras intentan proteger sus secretos y superar otras dificultades que la vida les presenta.



Título   Pretty Little Liars (Pequeñas Lindas Mentirosas)
Género Drama adolescente Misterio-Suspenso
Creado por Marlene King Sara Shepard (novela)
Reparto   Troian Bellisario, Ashley Benson, Shay Mitchell, Lucy Hale, Tammin Sursok, Holly Marie,  Combs, Torrey DeVitto, Ian Harding, Keegan Allen, Laura Leighton, Chad Lowe, Sasha Pieterse
Sintonía de cabecera   "Secret" de The Pierces
País de origen    Estados Unidos
Duración   42 minutos
Idioma/s   Inglés
Temporadas   2








Todos los archivos estan igual
Format : AVI
Format/Info : Audio Video Interleave
File size : 350 MiB
Duration : 43mn Aprox
Overall bit rate : 1 113 Kbps
Writing application : transcode-1.0.4
Video #0
ID : 0
Format : MPEG-4 Visual
Format profile : Advanced [email protected]
Format settings, BVOP : 2
Format settings, QPel : No
Format settings, GMC : No warppoints
Format settings, Matrix : Default (H.263)
Codec ID : XVID
Codec ID/Hint : XviD
Duration : 43mn 59s
Bit rate : 944 Kbps
Width : 624 pixels
Height : 352 pixels

Display aspect ratio : 16:9
Frame rate : 23.976 fps
Color space : YUV
Chroma subsampling : 4:2:0
Bit depth : 8 bits
Scan type : Progressive
Compression mode : Lossy
Bits/(Pixel*Frame) : 0.179
Stream size : 297 MiB (85%)
Writing library : XviD 1.2.1 (UTC 2008-12-04)
Audio #1
ID : 1
Format : MPEG Audio
Format version : Version 1
Format profile : Layer 3
Codec ID : 55
Codec ID/Hint : MP3
Duration : 43mn 59s
Bit rate mode : Variable
Bit rate : 128 Kbps
Channel(s) : 2 channels
Sampling rate : 48.0 KHz
Compression mode : Lossy
Stream size : 49.0 MiB (14%)
Alignment : Aligned on interleaves
Interleave, duration : 24 ms (0.58 video frame)
Language: English
Subtitles :Spanish











Capitulos dividos en 2 partes 1 de 200 y otra de 147 aprox

http://www.mediafire.com/?ctqnh16nz2a86wy
Añadir extencion .txt

Contaseña: sper91


Para reproducir el formato mkv o cualquier otro formato de video les recomiendo usar el BSPlayer o KMPlayer y tener sus codecs al dia de Preferencia usar el pack Shark007.



(Clic a la imagen para ir a mis otros post)


Pretty Little Liars [Temp 1] [350MB] [HDTV]
25 Puntos Score: 8.3/10
Visitas: 4718 Favoritos: 3
Ver los usuarios que votaron...
22 Comentarios Pretty Little Liars [Temp 1] [350MB] [HDTV]
Gracias por la serie a mi mujer le gusta mucho esta jejee.
La temporada 1 la vi todo, la dos. Me quede, muy buena  
@41UC4RD de nada amigo disfrutenla

@Fachax  Yo apenas la voy a ver es que esto fue un pedido y mas o menos para el martes o miercoles ya tendre listo el post con los primeros 10 o talves toda (si me da tiempo) de la segundo temporada
Excelente, un amigo me la pidio, bajando  
muchas gracias
@sper91 sper91 cuando subiras los demas capitulos
@kkkarla Perdon por la demora sali de casa en lo que terminaba de subir ya esta editado el post en el spoiler estan el resto de los enlaces en la semana hago el post con la segunda temporada
@sper91 ok muchas gracias, ya la esperaba
Hey muchas gracias! No sabes como espero la segunda temporada. Saludos
Cita sper91: Mostrar
Much?
Subirias La Primera Temporada Subtitulada Completa Y Esta Cual Es?
@joker_ri Esta es la primera temporada los subtitulos esta en un archivo aparte pero solo tienes que abrir el video y los subtitulos deberian verse. la segunda tambien ya la subi revisa en mis otros post
CAIDOS, CAIDOS ?
Andan todos muy bien! graciass!  
SALE invalid account o deleted.
noooo !!! links caidos .....................................
@federucho399 los arreglo al rato te aviso cuando estan listos
gracias , gracias , gracias !!!!
cuando vas a volverla a subir please
Para dejar un comentario Registrate! o.. eres ya usuario? Accede!