Oops.. Este post tiene los enlaces eliminados!

Identi revisa las denuncias de los usuarios en busca de enlaces eliminados que no dejan descargar los archivos, este mensaje te informa que este post que estas viendo tiene los enlaces eliminados.

Usa el Buscador

Por favor, te recomendamos que uses el buscador para encontrar más alternativas.

The divide (La divicion) [2011] [DVDRip]

  • Categoría: Reciclaje
  • Publicado hace más de 4 años

Espero les guste no olviden comentar para sugerencias y opiniones



Thriller post-apocalíptico que empieza con una pandemia y una caótica carrera hacia el sótano de un edificio de apartamentos en Nueva York justo antes de que afuera la ciudad se vea diezmada. Cuando una explosión catastrófica arrasa Nuevo York, 8 extraños se guarecen en el sótano de un edificio, un refugio nuclear diseñado por el paranoico encargado Mickey. El lugar tiene apenas espacio con 3 habitaciones conectadas, pero tiene reservas de alimentos y agua, y al menos el grupo está a salvo de los horrores del exterior. Así que se asientan e intentan comprender la catástrofe que ha terminado con sus vidas cotidianas que tanto amaban.(FILMAFFINITY)


TÍTULO ORIGINAL   The Divide (The Fallout)
AÑO 2011
DURACIÓN 122 min.
PAÍS EUA
GÉNERO Thriller. Acción. Drama | Futuro postapocalíptico. Supervivencia
DIRECTOR   Xavier Gens
GUIÓN   Karl Mueller, Eron Sheean
MÚSICA   Jean-Pierre Taieb
FOTOGRAFÍA   Laurent Barès
REPARTO   Lauren German, Michael Biehn, Milo Ventimiglia, Rosanna Arquette, Courtney B. Vance, Michael Eklund, Ivan Gonzales
PRODUCTORA   Coproducción Estados Unidos-Canadá-Alemania; Instinctive Film / Parlay Media
PREMIOS   2011: Festival de Sitges: Mejor maquillaje







Format : AVI
Format/Info : Audio Video Interleave
File size : 705 MiB
Duration : 2h 2mn

Overall bit rate : 807 Kbps
Writing application : AbSurdiTys Hyper XviD
Writing library : VirtualDub build 34703/release
Copyright : By AbSurdiTy
Video #0
ID : 0
Format : MPEG-4 Visual
Format profile : Advanced [email protected]
Format settings, BVOP : 4
Format settings, QPel : No
Format settings, GMC : No warppoints
Format settings, Matrix : Default (H.263)
Muxing mode : Packed bitstream
Codec ID : XVID
Codec ID/Hint : XviD
Duration : 2h 2mn
Bit rate : 669 Kbps
Width : 656 pixels
Height : 272 pixels

Display aspect ratio : 2.40:1
Frame rate : 23.976 fps
Color space : YUV
Chroma subsampling : 4:2:0
Bit depth : 8 bits
Scan type : Progressive
Compression mode : Lossy
Bits/(Pixel*Frame) : 0.156
Stream size : 585 MiB (83%)
Writing library : XviD 64
Audio #1
ID : 1
Format : MPEG Audio
Format version : Version 1
Format profile : Layer 3
Codec ID : 55
Codec ID/Hint : MP3
Duration : 2h 2mn
Bit rate mode : Constant
Bit rate : 128 Kbps
Channel(s) : 2 channels
Sampling rate : 48.0 KHz
Compression mode : Lossy
Stream size : 112 MiB (16%)
Alignment : Split accross interleaves
Interleave, duration : 42 ms (1.00 video frame)
Interleave, preload duration : 500 ms
Writing library : LAMELAME_MAJOR_VERSI
Language: English
Subtitles: Spanish








Enlaces De Descarga
http://www.mediafire.com/?oa261lmg8wlr0ia
Añadir extencion .txt

Contraseña del archivo rar http://www.identi.li
Contraseña de mediafire NO


Y para reproducir el formato mkv o cualquier otro les recomiendo usar el BSPlayer o KMPlayer y tener sus codecs al dia de Preferencia usar el pack Shark007


No olvides comentar
The divide (La divicion) [2011] [DVDRip]
25 Puntos Score: 8.3/10
Visitas: 2061 Favoritos: 2
Ver los usuarios que votaron...
18 Comentarios The divide (La divicion) [2011] [DVDRip]
gracias. recomiendo VLC player, ya tiene codec integrados. y reproduce sin trabas, y perfecto un MKV a 1080p
@tute1090 De nada. Es otra buena opcion el vlc
los subs son pegados al video o separados!?
@D4NILO Son separados pero se abren con solo extraer los archivos y reproducir el video normalmente
gracias por la peli...descargando...
cual es el pass??
Cita sper91: Mostrar
verifica amigo ninguna de las 2 me funciona
Cita sper91: Mostrar

Cita sper91: Mostrar

en ambos salio mal es sin las diagonales del final osea nadmas hasta .li y sin comillas "http://www.identi.li" o sino "www.identi.li"
@fjbencomo amigo avisame si pudiste descomprimirlo creo que algunos de mis comprimidos salieron mal no puedo extraerlos y este ya lo borre de mi compu si no se puede para volverlo a subir
Cita sper91: Mostrar
Todo bien amigo, se descomprimi sin problemas el pass es: http://www.identi.li
@fjbencomo Ok que bueno que salio bien. gracias por los puntos
Hey! disculpa podrias resubirla? la he estado buscando
Para dejar un comentario Registrate! o.. eres ya usuario? Accede!