Oops.. Este post tiene los enlaces eliminados!

Identi revisa las denuncias de los usuarios en busca de enlaces eliminados que no dejan descargar los archivos, este mensaje te informa que este post que estas viendo tiene los enlaces eliminados.

Usa el Buscador

Por favor, te recomendamos que uses el buscador para encontrar más alternativas.

Agente alien [DVDRip] [2007] [Avi]

  • Categoría: Reciclaje
  • Publicado hace más de 4 años

Esta pelicula no es la gran cosa el comienzo se me hizo muy pesado pero por suerte aguante y la cosa fue mejorando algo según avanzaba la peli, pero tampoco demasiado, al menos las chicas son agradables de ver





A años luz del Sistema Solar se encuentra un mundo enfermo que busca un nuevo planeta que colonizar. Un grupo militar renegado ha escogido la Tierra como nuevo hogar, y para ello está construyendo una puerta que conectará los dos mundos. Rykker, el mejor soldado de La Organización, y guerrero intergaláctico imparable además de maestro en las armas y combate cuerpo a cuerpo, es el único que puede detenerlos y salvar a la humanidad de la destrucción. (FILMAFFINITY)




TÍTULO ORIGINAL:   Alien Agent
AÑO: 2007 
DURACIÓN: 87 min. 
PAÍS: Canada
GÉNERO:     Ciencia ficción. Acción | Crimen
DIRECTOR: Jesse Johnson
GUIÓN:
Vlady Pildysh
MÚSICA:
Michael Richard Plowman
FOTOGRAFÍA:
C. Kim Miles
REPARTO:
Mark Dacascos, Billy Zane, Lindsay Maxwell, Amelia Cooke, Emma Lahana, Darren Shahlavi, Dominique Vandenber
PRODUCTORA:
Alien Films









 
Format : AVI
 Format/Info : Audio Video Interleave
 
File size : 700 MiB
 Duration : 1h 30mn

 Overall bit rate : 1 081 Kbps
 Writing application : Nandub v1.0rc2
 Writing library : Nandub build 1852/release
Video #0
 ID : 0
 Format : MPEG-4 Visual
 Format profile : [email protected]
 Format settings, BVOP : 2
 Format settings, QPel : No
 Format settings, GMC : No warppoints
 Format settings, Matrix : Default (H.263)
 Muxing mode : Packed bitstream
 Codec ID : XVID
 Codec ID/Hint : XviD
 Duration : 1h 30mn
 Bit rate : 940 Kbps
 
Width : 640 pixels
 Height : 352 pixels

 Display aspect ratio : 16:9
 Frame rate : 25.000 fps
 Color space : YUV
 Chroma subsampling : 4:2:0
 Bit depth : 8 bits
 Scan type : Progressive
 Compression mode : Lossy
 Bits/(Pixel*Frame) : 0.167
 Stream size : 609 MiB (87%)
 Writing library : XviD 1.0.3 (UTC 2004-12-20)
Audio #1
 ID : 1
 
Format : MPEG Audio
 Format version : Version 1

 Format profile : Layer 3
 Mode : Joint stereo
 Mode extension : MS Stereo
 Codec ID : 55
 Codec ID/Hint : MP3
 Duration : 1h 30mn
 Bit rate mode : Variable
 Bit rate : 128 Kbps
 
Channel(s) : 2 channels
 Sampling rate : 48.0 KHz
 Compression mode : Lossy
 Stream size : 83.2 MiB (12%)
 Alignment : Aligned on interleaves
 Interleave, duration : 24 ms (0.60 video frame)
 Interleave, preload duration : 137 ms
 Writing library : LAME3.96r

   Encoding settings : -m j -V 4 -q 3 -lowpass 17.5 --abr 128
Language : English
Subtitles: Spanish









3 archivos de 200Mb y 1 de 100Mb Total 700Mb




Para unir los archivos usar hj split descargalo de AQUI
1:Ejecutar HJSplit
2:Clic en "Join"
3:Clic en "Input File"
4:Navegar hasta la carpeta donde estan los archivos que descargaste y darle doble clic solo te aparecera el primero (.001)
5:Clic en "Start" y esperar aque termin
6:Clic derecho al archivo rar que salga y clic en "Extraer Aqui"


Si lo descargas con JDownloader solo tienes que ir Ajustes >> Complementos >> Habilitar la casilla de "JD HJ-Split"

Y para reproducir el formato mkv o cualquier otro formato de video les recomiendo usar el BSPlayer o KMPlayer y tener sus codecs al dia de Preferencia usar el pack Shark007.
Agente alien [DVDRip] [2007] [Avi]
0 Puntos Score: 0/10
Visitas: 2017 Favoritos: 1
6 Comentarios Agente alien [DVDRip] [2007] [Avi]
 :|al descomprimir dice que el archivo esta corrupto....gracias de todas maneras
@ginorey Talves se te interrumpio la descarga o algo por que ya los descargue y si sirven amigo
mmmm me paso lo mismo ke a @ginorey, el splitter & join unio bien la pelicula pero al extraer del rar me tira un error y keda en 50mb  
@ginorey @Dark_Lex Una disculpa a ambos voy a volver a subir los archivos, fue error mio si estan da?
vale se agradece!!!  
Estimado, vuestros link aparecen fuera de linea.
Para dejar un comentario Registrate! o.. eres ya usuario? Accede!