educap
"Por qué algo y no más bien nada?"

1951-Rashomon-Oscar mejor peli extranjera-Dual

Oscar-1951-Mejor peli extranjera-Rashomon




Rashomon


Director: Akira Kurosawa
Intérpretes: Kichijiro Ueda, Machiko Kyo, Masayuki Mori, Minoru Chiaki, Takashi Shimura, Toshiro Mifune
País: Japón
Año: 1951
Duración: 88 min
Género: Drama

Huyendo de la lluvia torrencial, un sacerdote, un leñador y un criado se refugian en el templo de Rashomon. Allí comentan el asesinato de un noble samurai en el bosque. Parece que el bandido declaró haberse enamorado de la esposa del samurai y por ello le mata. La mujer dice que sedujo al bandido y luego mató al esposo. El espíritu del samurai dice que se suicidó ante el deshonor cometido por su mujer. El criado cuenta lo que él mismo presenció.

Calidad: DVDRip
Tamaño: 1,15 gb
Idioma: Castellano, japonés (Dual)
Rashomon.avi
Format                      : AVI
Format/Info                 : Audio Video Interleave
File size                   : 1.17 GiB
Duration                    : 1h 27mn
Overall bit rate mode       : Variable
Overall bit rate            : 1 909 Kbps
Writing application         : VirtualDubMod 1.5.10.2 (build 2540/release)
Writing library             : VirtualDubMod build 2540/release

Video
ID                          : 0
Format                      : MPEG-4 Visual
Format profile              : Advanced [email protected]
Format settings, BVOP       : 2
Format settings, QPel       : No
Format settings, GMC        : No warppoints
Format settings, Matrix     : Default (H.263)
Codec ID                    : XVID
Codec ID/Hint               : XviD
Duration                    : 1h 27mn
Bit rate                    : 1 633 Kbps
Width                       : 640 pixels
Height                      : 480 pixels
Display aspect ratio        : 4:3
Frame rate                  : 25.000 fps
Color space                 : YUV
Chroma subsampling          : 4:2:0
Bit depth                   : 8 bits
Scan type                   : Progressive
Compression mode            : Lossy
Bits/(Pixel*Frame)          : 0.213
Stream size                 : 1.00 GiB (86%)
Writing library             : XviD 1.1.2 (UTC 2006-11-01)

Audio #1
ID                          : 1
Format                      : MPEG Audio
Format version              : Version 1
Format profile              : Layer 3
Mode                        : Joint stereo
Mode extension              : MS Stereo
Codec ID                    : 55
Codec ID/Hint               : MP3
Duration                    : 1h 27mn
Bit rate mode               : Variable
Bit rate                    : 119 Kbps
Nominal bit rate            : 128 Kbps
Channel(s)                  : 2 channels
Sampling rate               : 48.0 KHz
Compression mode            : Lossy
Stream size                 : 74.9 MiB (6%)
Alignment                   : Aligned on interleaves
Interleave, duration        : 24 ms (0.60 video frame)
Interleave, preload duratio : 466 ms
Writing library             : LAME3.90.
Encoding settings           : -m j -V 4 -q 2 -lowpass 17.6 --abr 128

Audio #2
ID                          : 2
Format                      : MPEG Audio
Format version              : Version 1
Format profile              : Layer 3
Mode                        : Joint stereo
Mode extension              : MS Stereo
Codec ID                    : 55
Codec ID/Hint               : MP3
Duration                    : 1h 27mn
Bit rate mode               : Variable
Bit rate                    : 135 Kbps
Nominal bit rate            : 128 Kbps
Channel(s)                  : 2 channels
Sampling rate               : 48.0 KHz
Compression mode            : Lossy
Stream size                 : 84.9 MiB (7%)
Alignment                   : Aligned on interleaves
Interleave, duration        : 24 ms (0.60 video frame)
Interleave, preload duratio : 462 ms
Writing library             : LAME3.90.
Encoding settings           : -m j -V 4 -q 2 -lowpass 17.6 --abr 128







educap
No se olviden de seguirme, en otros post tengo las anteriores y vamos por las siguientes.
Tu comentario me incentiva a seguir posteando.
Comenta!!!!!!!!!!!!!!!!!!!!!!!!!!!!
Y siganme, no los voy a defraudar!!!!!!!!

1951-Rashomon-Oscar mejor peli extranjera-Dual

Peliculas en Latino - Series en latino
25 Puntos Score: 8.3/10
Visitas: 1116 Favoritos: 1
Ver los usuarios que votaron...
12 Comentarios 1951-Rashomon-Oscar mejor peli extranjera-Dual
Amigo gracias por seguir con esta labor, solo una pregunta ?
Excelente aporte como siempe!!!   a seguir!!!  
Excente, amigo. Voy a empezar a armar esta colecci?
Gracias Amigo!!!      
muy buena propuesta. Te sigo.  
Cita dendro30: Mostrar
Cita Compiler: Mostrar
Excelente amigo, no me hab?
@educap ya te estoy siguiendo.  
A ver si lo puedo rescatar  
Saludos
Para dejar un comentario Registrate! o.. eres ya usuario? Accede!