educap
"Por qué algo y no más bien nada?"

1947-Monsieur Vincent-Oscar mejor peli extranjera

Oscar-1948-Mejor peli extranjera-Monsieur Vincent




Monsieur Vincent


Director: Maurice Cloche
Intérpretes: Pierre Fresnay, Jean Carmet, Lise Delamare, Yvonne Gaudeau, Gabrielle Dorziat
País: Francia
Año: 1947
Género: Drama

La película es una biografía de San Vicente de Paúl, sacerdote que luchó para conseguir la paz y armonía entre los nobles y los plebeyos durante la Peste Negra en Europa. A base de trabajo y caridad intentará vencer todos los obstáculos.

Calidad: DVDRip
Tamaño: 689 mb
Idioma: Francés
Subtitulos srt: Español
1948-Monsieur VINCENT.avi
Format                      : AVI
Format/Info                 : Audio Video Interleave
File size                   : 705 MiB
Duration                    : 1h 49mn
Overall bit rate            : 901 Kbps
Writing library             : VirtualDub build 17971/release

Video
ID                          : 0
Format                      : MPEG-4 Visual
Format settings, BVOP       : 1
Format settings, QPel       : No
Format settings, GMC        : No warppoints
Format settings, Matrix     : Default (H.263)
Muxing mode                 : Packed bitstream
Codec ID                    : DX50
Codec ID/Hint               : DivX 5
Duration                    : 1h 49mn
Bit rate                    : 843 Kbps
Width                       : 720 pixels
Height                      : 576 pixels
Display aspect ratio        : 5:4
Frame rate                  : 25.000 fps
Standard                    : PAL
Color space                 : YUV
Chroma subsampling          : 4:2:0
Bit depth                   : 8 bits
Scan type                   : Progressive
Compression mode            : Lossy
Bits/(Pixel*Frame)          : 0.081
Stream size                 : 660 MiB (94%)
Writing library             : DivX 5.2.1 (WaffleDay) (UTC 2004-09-08)

Audio
ID                          : 1
Format                      : MPEG Audio
Format version              : Version 1
Format profile              : Layer 3
Codec ID                    : 55
Codec ID/Hint               : MP3
Duration                    : 1h 48mn
Source duration             : 1h 49mn
Bit rate mode               : Constant
Bit rate                    : 48.0 Kbps
Channel(s)                  : 1 channel
Sampling rate               : 44.1 KHz
Compression mode            : Lossy
Stream size                 : 37.4 MiB (5%)
Alignment                   : Split accross interleaves
Interleave, duration        : 40 ms (1.00 video frame)
Interleave, preload duratio : 502 ms





Enlaces De Descarga
mega://enc2?OXNIHUm3TZVl9RPRNLp5CGvmEhJ9LFMauTAJlrygZ7SwIw6HLoho4XofKBsaic2P7sSZN62akw7FcJwYWPCyvA

educap
peliculas - programas
20 Puntos Score: 10/10
Visitas: 1096 Favoritos: 1
Ver los usuarios que votaron...
15 Comentarios 1947-Monsieur Vincent-Oscar mejor peli extranjera
2da. peli: el que quiera la primera http://www.identi.li/index.php?topic=66432 El lustrabotas, 1947. Siganme, no los voy a defraudar, con las restantes!!!!!!!!!!!
Comenten; su comentario, es lo unico que me consuela  
Mil gracias @dendro30  si uno la baja, ya doy la subida como un exito! La que estoy subiendo ahora es "El ladr?
realmente es muy valioso tu trabajo amigo estas peliculas son dignas de verse..saludos
Cita educap: Mostrar
@dendro30 jeje tenes razon, es que lo dije de memoria, no teniendo memoria: quedate tranqui que la que sigue es Demasiado tarde, luego la japonesa  
@vikigup Totalmente de acuerdo: para estrenos y pelis populares otros; a mi dejenme las dificiles  
Hay algunas que son obras maestras, y que iba a subir primero, pero luego pens?
Muchas Gracias.... excelente aporte... y sigue as?
Excelente aporte!!! todas joyas del cine!!!    
Excelente aporte y gracias @sawadypap por la reco...
De nada @motatun gracias por comentar!!!!!!!!!@sawadypap De nada sawa, siempre valorando los trabajos d otros, gascias!!!!!!!!!!
 @leddek Gracias a los dos!!!  
gracias.... peli dificil de encontrar... pero al fin  
Hola, si, y pasate por las otras analogas que tengo
@lfya
Amigo, no la tendr?
Cita hugomp3: Mostrar
Para dejar un comentario Registrate! o.. eres ya usuario? Accede!
Facebook Identi