educap
"El que ríe último ríe tarde y poco"

1946-El limpiabotas-Oscar mejor peli extranjera-MG

1946-El limpiabotas-Oscar mejor peli extranjera-MG









Director: Vittorio De Sica
Intérpretes: Aniello Mele, Anna Pedoni, Bruno Ortensi, Emilio Cigoli, Franco Interlenghi, Rinaldo Smordini
País: Italia
Año: 1946
Género: Drama

En la Roma de postguerra, durante la ocupación aliada, dos jóvenes limpiabotas sueñan con comprarse un caballo. La única forma de conseguir el dinero necesario es sumándose al amplio mercado negro, producto de la escasez y el desempleo

Nota

Bueno, aca les dejo esta peli. Dificil de conseguir. Por eso la subo. La verdad es que cuando la vi no me gustó mcucho, creo. Pero para el que quiere comprender el cine, debe verla.
Asi inauguro un proyecto a largo alcance: comenzaré a subir todas las ganadoras del Oscar a mejor pelicula extranjeras, hasta la actualidad.
Este post y los demás sobre este tema se lo dedico al que las subió primero a megaupload, @letargico, usuario de T! Hoy, después de un año, visité el post y estaba eliminado, por este tema de que todos los liks de MU estaban caidos. Asi que en esta cadena vengo a ser un eslabon mas que mañana deberás ser vos.

Trataré de subir obligado una peli por semana, aunque veré si puedo una todos los dias.
En total son unas 70, que entran en 13 dvds.


Pongan este post a favoritos y siganme! No los voy a defraudar



Format                      : AVI
Format/Info                 : Audio Video Interleave
File size                   : 700 MiB
Duration                    : 1h 26mn
Overall bit rate            : 1 130 Kbps
Writing application         : VirtualDubMod 1.5.4.1 (build 2178/release)
Writing library             : VirtualDubMod build 2178/release

Video
ID                          : 0
Format                      : MPEG-4 Visual
Format profile              : Advanced [email protected]
Format settings, BVOP       : 1
Format settings, QPel       : No
Format settings, GMC        : No warppoints
Format settings, Matrix     : Custom
Codec ID                    : XVID
Codec ID/Hint               : XviD
Duration                    : 1h 26mn
Bit rate                    : 1 027 Kbps
Width                       : 576 pixels
Height                      : 432 pixels
Display aspect ratio        : 4:3
Frame rate                  : 25.000 fps
Color space                 : YUV
Chroma subsampling          : 4:2:0
Bit depth                   : 8 bits
Scan type                   : Progressive
Compression mode            : Lossy
Bits/(Pixel*Frame)          : 0.165
Stream size                 : 636 MiB (91%)
Writing library             : XviD 1.1.2 (UTC 2006-11-01)

Audio
ID                          : 1
Format                      : MPEG Audio
Format version              : Version 1
Format profile              : Layer 3
Mode                        : Joint stereo
Mode extension              : MS Stereo
Codec ID                    : 55
Codec ID/Hint               : MP3
Duration                    : 1h 26mn
Bit rate mode               : Constant
Bit rate                    : 96.0 Kbps
Channel(s)                  : 2 channels
Sampling rate               : 32.0 KHz
Compression mode            : Lossy
Stream size                 : 59.5 MiB (8%)
Alignment                   : Aligned on interleaves
Interleave, duration        : 80 ms (2.00 video frames)
Interleave, preload duratio : 504 ms
Writing library             : LAME3.97 
Encoding settings           : -m j -V 4 -q 2 -lowpass 15.1 -b 96







educap

descargar peliculas - descargar programas
35 Puntos Score: 8.8/10
Visitas: 1823 Favoritos: 3
Ver los usuarios que votaron...
33 Comentarios 1946-El limpiabotas-Oscar mejor peli extranjera-MG
Por favor: su comentario es mi consuelo: no deje de hacerlo!
Excelente aporte....
Excelente aporte!!!!   recomendado y ma?
Cita sawadypap: Mostrar
@educap al contrario... esta joya del cine y este aporte se lo merece!!!  
Cita sawadypap: Mostrar
Quiza

Cita sdcaza: Mostrar
Vaya genial aporte y mucho mas genial tu idea de poner todas las ganadoras a mejor pelicula extranjera, no mas no nos vayas a dejar solo con la intencion. Gracias.
  Amazing ! muchas gracias bro!
Apoyo tu proyecto. Sigue asi hasta el final.  
exelente brotherrr, interesante oratoriaaa
Lo prometido es deuda!!!  
Gracias por el aporte
a favoritos y pendiente de ver que mas sale. gracias vos
Amigo! NO tienes los sub... alguien los tiene??
Cita ranGersV: Mostrar

ran revisa bien pues yo la baje y los tiene, quiza sea el reproductor que usas . Intenta con algun otro
Cita dendro30: Mostrar
No te preocupes, las voy subiendo... Gracias por pasarte otra vez....  
Cita carlowsk: Mostrar
De nada bro!!!  


Cita neoraxis: Mostrar
Voy a tratar, gracias por el comentario  
 sawadypap grande sawa, dormis alguna vez?  
@Marckont  de nada @
@Margarito de nada man  
@ranGersV  de nada gracias a vos
@kalimans dale vo, seguime, en la semana seguro van cinco pelis, para que tengan el 1er. dvd de la coleccion
@ranGersV Como dijo el amigo @dendro30 ya estan pegados al video, sin embargo lo consegui y lo ajust?
Orale. gracia. veras solo vi una parte. y no aparecio. el sub al parecer un pequeno problemita con mi reproductor. de alguna manera se soluciono. !!  
genial el post amigo. buen trabajo    
@ranGersV   Ok. Que la disfrutes etonces!!!  
@Moyokpo Muchas gracias, tu sigue asi, comentando es un gran aporte que necesitamos muchos de lo que dedicamos tiempo en el compartir  
Les dejo el sub por si alguien lo quiere, aunque en esta peli no haga falta
http://www.mediafire.com/download.php?n5hat5pdcikxk1x
@educap gracias por tus palabras amigo. felicitaciones. tal vez algun dia me atreva a hacer un post  
Que Excelente aporte, y gracias por compartir esta pel?
te felicito por tu esfuerzo, buen aporte
link caidos , ojala los puedas resubir, saludos!!
donde la descargo?, di clic en el enlace de hasta arriba donde dice "descargar aqu?
Cita luangie: Mostrar
hola, se cayeron los link, los podes subir a Mega?
enlace actualizado enero 2017
Para dejar un comentario Registrate! o.. eres ya usuario? Accede!
Facebook Identi