Oops.. Este post tiene los enlaces eliminados!

Identi revisa las denuncias de los usuarios en busca de enlaces eliminados que no dejan descargar los archivos, este mensaje te informa que este post que estas viendo tiene los enlaces eliminados.

Usa el Buscador

Por favor, te recomendamos que uses el buscador para encontrar más alternativas.

La pasion de cristo FullHD arameo Sub espa?ol 5.1

  • Categoría: Reciclaje
  • Publicado hace más de 4 años
                        HOLA A TODOS AQUI LES DEJO MI NUEVO APORTE ESPERO LES GUSTE

Tremenda peli Tremenda calidad FULLHD en su idioma original ARAMEO y con sub en espaƱol
el archivo pesa 24 GB aprox (calidad insuperale)


General

Format               : BDAV
Format/Info            : Blu-ray Video
File size              : 24.6 GiB
Duration               : 2h 6m
Overall bit rate         : 27.8 Mbps
Maximum Overall bit rate     : 35.5 Mbps

Video
Format               : AVC
Format/Info            : Advanced Video Codec
Format profile           : [email protected]
Format settings, CABAC       : Yes
Format settings, ReFrames    : 4 frames
Codec ID               : 27
Duration               : 2h 6mn
Bit rate mode            : Variable
Bit rate               : 24.1 Mbps
Maximum bit rate         : 35.5 Mbps
Width                : 1 920 pixels
Height               : 1 080 pixels
Display aspect ratio       : 16:9
Frame rate             : 23.976 fps

Bit depth              : 8 bits
Scan type              : Progressive
Bits/(Pixel*Frame)         : 0.484
Stream size            : 21.3 GiB (87%)


http://www.foto.pk/images/thepassion.jpg
http://www.foto.pk/images/thepasfnf.jpg
http://www.foto.pk/images/thepasrlr.jpg
http://www.foto.pk/images/thepasdxd.jpg


el archivo pesa 23.7 GB en 122 partes de 200 MB y 1 de 46MB

O en contenedor para facilitar la descarga


PASS takersaieh
Espero les guste el post y la peli!!! cualquier duda o comentario no duden en hacerlo!! recuerden comentar!!
La pasion de cristo FullHD arameo Sub espa?ol 5.1
40 Puntos Score: 8/10
Visitas: 6408 Favoritos: 1
Ver los usuarios que votaron...
51 Comentarios La pasion de cristo FullHD arameo Sub espa?ol 5.1
muy buen post y sobre todo el esfuerzo, pero pone todos los datos de un Bluray FULL HD- video/audio codec y demas
lo voy a bajar....es full cierto con su menu y todo.....la region y mas info te falto..saludos   ojala subas mas BD por MF..avisame gracias  
te doy mis 5 porque eres nova, y porque esta pelicula es una de las mejores y mas reales sobre la pasio y muerte de Jesus que he visto.....
Cita Jhamix: Mostrar
nops u.u solo un rip purito
gracias entons NOla bajo..saludos  
Un ejemplo como poner esta pelicula en un dvd?? O.o
Deberias poner m?
los 10 por subir un archivo tan pesado  
Gracias...voy a ocupar todo el dd para ver la calidad. Gracias por el esfuerzo
disculpa viene en que formato...mkv?
ya ahora le puse capturas y info gracias x las sugerencias
Cita tute1090: Mostrar
ahi le puse lo que le faltaba
Hola muchas Gracias por la pelicula.. pero NO PUEDO DESMPRIMIRLA ME DICE QUE EL PASWORD ES  INCORRECTO??? ME PODRIAS DECIR CUAL ES???
takersaieh ese es el pass
listo... pero no tengo audio.. cuales son los codec? gracias..
o uso l k lite codec pack 10
gracias por la pelicula, pero al descomprimir me da error en la contrase?
buenas tardes no la puedes ripear para los que no tenemos tanto espacio en el dd por favor la necesito si eres tan amable se te agradece hermano
tarde 4 dias en bajarlo PERO QUIERO DECIR QUE ANDA TODO ESPECTACULAR
hay que convertir a dvd despues de descomprimir o ya viene nomas para quemarla la quiero ver en mi dvd casero perdon por la ignorancia alguien me puede decir si la tengo que convertir a dvd todavia
insisto tarde 20 horas en descargar la peli apenas se esta acabando de descargar en estos momento me faltan 5 minutitos mas pero nadie me da respuesta alo que pregunte tengo que convertir todavia a dvd o ya esta lista para quemarla y verla en un dvd casero sorry por la ignorancia por fin acabe ufffffffff!!!!!!!!!!!!!!!!!! fueron un chingal de links pero por fin acabe
eeee es para un blu ray pesa 24gb y un dvd tiene solo 4.7gb
no puedo poner los subtitulos al espa?
con el media player classic ese abre todo
Cita tute1090: Mostrar
Creo que al aporte del Gradiador le falta su info respectivo!!!!!!!!  
Cita SOPAFKO: Mostrar
como resulto todo???
@moran84 te boy a ser sincero ni siquiera la pude descomprimir por que??? por que mi disco duro no tiene el suficiente espacio para esta peli por eso no se pudo descomprimir pero la descargue en otro post de aqui mismo en hd y esa si me funciono ala perfecion, todo buscala aqui mismo la verdad no recuerdo la direcion pero nomas hay tres post de esta misma peli buscala como pasion de cristo atte el kike desde kansas
Cita SOPAFKO: Mostrar

Pero amigo el espacio para mi es lo de menos tengo 1TB!! se sabe que para este tipo de gusto HD1080p BD es necesario buen espacio en la PC si no es as?
@moran84 de verdad estoy seguro que no hay ningun problema con la peli descargala con confianza el problema fue mio del espacio de mi disco duro por que si descomprimio pero nada mas como una cuarta parte por que mi disco loluego me indico que no habia suficiente espacio para seguir
Alguien que me ayude tengo un problema me tira un  error el 7zip?
Cita Elite: Mostrar

no te dio error al unir las partes__???
Cita Elite: Mostrar

Hey amigo no te dio ning?
necesito la parte 79 !!!!!!!!!!!!!!!!!!!!!!!!!!!!! no esta en el archivo DLC
aqui esta los links de todos los archivos Decryptados http://www.mediafire.com/?25azudbabocr1
Cita moran84: Mostrar
y eso k seria?
Cita saieh: Mostrar

Eso seria para los que prefieren descargar con otra cosa como el IDM y no JD que hace tiempo no esta funcionado como debe!! POR ESO??
Cita saieh: Mostrar


Jejejejej no habia visto que ahi estaban disculpa!!!!!!
esta movie me a roto los cojones!!!!!!!!!!!!!!! al dscomprimir me da uun error luego unas partes se me desaparecieron y otra vez estoy descargando lo desaparecido!!!!! nose que sera pero hay fantasmas aqui!!!!
Cita moran84: Mostrar
io tampoko c k cera alguns dicen k les da error de descarg otros de pass y otros dicen k ta la raja creo k solo los elegidos pueden ajaj
na mil disculpas pero no c k mierda sera gracias x comentar
Cita saieh: Mostrar

pero dime tu comprobaste las partes antes de subir esto??? porque 25gb es una camada de tiempo y mi modem esta que arde parece parrilla jejejej se puede cocinar un huevo. La pregunta es los que la descargaron es que la estan viendo o es que se desaparecieron tipo paranormal jeje ya que los que supuesta mente la bajaro,n pero no me contestan!!
@Elite dice que le anda la raja y @moran84 puso ls links desencriptados
la verdad que me doy cuenta de algo esta men no puso lo del audio por alguna razon que es DTS y no se escucha nada aqui el resultado

General
ID                                       : 1 (0x1)
Format/Info                              : Blu-ray Video
File size                                : 24.6 GiB
Duration                                 : 2h 6mn
Overall bit rate mode                    : Variable
Overall bit rate                         : 27.8 Mbps
Maximum Overall bit rate                 : 35.5 Mbps

Video
ID                                       : 4113 (0x1011)
Menu ID                                  : 1 (0x1)
Format                                   : AVC
Format/Info                              : Advanced Video Codec
Format profile                           : [email protected]
Format settings, CABAC                   : Yes
Format settings, ReFrames                : 4 frames
Codec ID                                 : 27
Duration                                 : 2h 6mn
Bit rate mode                            : Variable
Bit rate                                 : 24.1 Mbps
Maximum bit rate                         : 35.5 Mbps
Width                                    : 1 920 pixels
Height                                   : 1 080 pixels
Display aspect ratio                     : 16:9
Frame rate                               : 23.976 fps
Color space                              : YUV
Chroma subsampling                       : 4:2:0
Bit depth                                : 8 bits
Scan type                                : Progressive
Bits/(Pixel*Frame)                       : 0.484
Stream size                              : 21.3 GiB (87%)
Color primaries                          : BT.709-5, BT.1361, IEC 61966-2-4, SMPTE RP177
Transfer characteristics                 : BT.709-5, BT.1361
Matrix coefficients                      : BT.709-5, BT.1361, IEC 61966-2-4 709, SMPTE RP177

Audio
ID                                       : 4352 (0x1100)
Menu ID                                  : 1 (0x1)
Format                                   : DTS
Format/Info                              : Digital Theater Systems
Format profile                           : MA / Core
Muxing mode                              : Stream extension
Codec ID                                 : 134
Duration                                 : 2h 6mn
Bit rate mode                            : Variable
Bit rate                                 : 2 611 Kbps / 1 510 Kbps
Channel(s)                               : 6 channels
Channel positions                        : Front: L C R, Side: L R, LFE
Sampling rate                            : 48.0 KHz
Bit depth                                : 24 bits
Compression mode                         : Lossless / Lossy
Language                                 : English


calidad pesima audio en DTS y pasarlo a AC3 se tarda medio siglo!!! una verdadera perdida de tiempo !
Tu eres el uploader the esta peli?
yo soy el uploader pero no caxo k onda ahi dice clarito k s dts n 5.1 arameo sonido digital y todos saben k el dts s mejor k el dobly aaah no caxo k onda
Bajando........, gracias por la pelicula, recien voy en los 3 gb., la parte 8 baja mal, baja 4.25 kb. de los 200 mb., si la pudieras resubir por fabor, gracias.
estimados me falta la parte 82 y 97 ojala la tengan para descargar la pelicula rapido, gracias
por favor puedes ponerlos otra vez
esta pelicula es chevere hago lo que quieras
resube los links
en mediafire
Para dejar un comentario Registrate! o.. eres ya usuario? Accede!