Oops.. Este post tiene los enlaces eliminados!

Identi revisa las denuncias de los usuarios en busca de enlaces eliminados que no dejan descargar los archivos, este mensaje te informa que este post que estas viendo tiene los enlaces eliminados.

Usa el Buscador

Por favor, te recomendamos que uses el buscador para encontrar más alternativas.

Gladiador Latino FULLHD (1080p) BD9 5.1 MF 7.54GB

  • Categoría: Reciclaje
  • Publicado hace más de 4 años
                     Hola aqui les dejo mi segundo aporte


                                Sinopsis
En el año 185, el Imperio Romano domina el mundo conocido. El gran general romano Máximo ha vuelto a regresar victorioso con sus legiones del campo de batalla. Ahora sólo sueña con el regreso al hogar junto a su esposa e hijo. Pero el agonizante emperador Marco Aurelio tiene una nueva misión para él: heredar su corona. Celoso del favor de que goza Máximo con el emperador, el heredero del trono Comodo ordena su ejecución y la de su familia. Máximo escapa a su destino pero se convierte en esclavo. Entrenado como gladiador, su fama crece en la arena. Vuelve a Roma decidido a vengar la muerte de su familia matando al nuevo emperador Comodo. Máximo ha descubierto que la voluntad del pueblo supera al poder del emperador y sabe que sólo podrá ejecutar su venganza si se convierte en el mayor héroe del imperio.


La pelicula esta en FULLHD (1080p) latino 5.1 en formato bluray (.BD)






el archivo pesa 7.54 GB son 72 partes de 100 MB y 1 de 94 MB



O en contenedor para facilitar la descarga



PASS takersaieh
Espero les guste el post y la peli!!! cualquier duda o comentario no duden en hacerlo!! recuerden comentar!!
Gladiador Latino FULLHD (1080p) BD9 5.1 MF 7.54GB
35 Puntos Score: 8.8/10
Visitas: 4378 Favoritos: 7
Ver los usuarios que votaron...
48 Comentarios Gladiador Latino FULLHD (1080p) BD9 5.1 MF 7.54GB
Tremendo aporte men, te pasaste
la descargo al toke!!!
si tienes m?
Muy buen aporte!!
Te doy la bienvenida a identi porque no vi tu post anterior..Mis ?
@cesar_villar a veces cuando re editas el post ya no se centra ni queriendo  
@Dyckdack si,es verdad..a mi me pasa..lo que tenes que hacer es editarlo con mozilla..no da tantos problemas como chrome.
Yo tengo que volver a poner [*center] al comienzo y [/*center] al final..Porque desaparece si lo editas una vez posteado.
muy weno,,, la e buscado en mediafire pero no estaba,,, gracias..........  esta es la version normal o la exendida...

saludso  y muchas gracias
 
@cesar_villar trate pero no me salio u.u pero igual gracias por el dato
ahora subiendo la pasion de cristo en 1080(24gb)
Gracias por el aporte Compa?
muy buen aporte amigo pero ojala subas tambien en idioma original
wwwoooowww la esperaba con esa resolucion. pendiente para descargar. gracias  
E X E L E N T E    G R A C I A S!!!!!!!!!
excelente aporte, ya la tenia, pero cuando aparecen cosas  muy buenas las guardo . quer?
@elsere lo descargue y me baja bn intenta denuevo a mi tb me pasa algunas veces con mf alguien mas tiene problemas con ese enlace?
@crom63 es dual tiene el sonido original ingles 5.1
che algunos screen shoots para ver la calidad no tendrias??
muy weno,,, la e buscado en mediafire pero no estaba,,, gracias..........  esta es la version normal o la exendida...

saludso  y muchas gracias
 
Gracias AMigo Muy buena pelicula Y mejor aun si es HD
Gracias por tu aporte men!! no encontraba esta peli en full HD
no puedo descomprimirla me Dice que    que ese no es el password???takersaieh??
Ojo esta pelicula esta en formato "m2ts" que solo se puede reproducir en un Pc o playstation 3, si quieren pasarla a mkv bajen este programa "gdsmux" se la dejara filete para un reproductor de MKV.
Diculpeen alguien tieenne unos subtitulos en espa?
gran aporte amigo, en que idioma esta?
Cita OscarAMP: Mostrar
latino y ingles ambos 5.1
Gracias Amigo bajandoooo... Muy buen aporte hd y amo el 5.1 jeje
Cita saieh: Mostrar
ummm gracias hermano la volver?
muchas gracias, Alguna idea de como pasar de .bd a .mt2s Saludos
que groso man...!!! adescargar a fulll
bajando es mi primera pel?
Excelente la verdad la recomiendo la calidad esta de lujo y audio todo!!!! y lo mejor de todo es que trae escenas nunca antes vistas!! Ojala el amigo SAIEH  siga aportando estas excelentes movies ! muchas gracias amigo por tus ganas de compartir y todo el tiempo que esto demanda!!
@saieh te pasate wn es la tremenda pelicula



descargando!!!
funciona a las mil maravillas, gracias por el aporte.
uuuuu ahora a esperar q descargue vale, grandisimo aporte
Cuando subes mas pelis en esta calidad BD9 O BD25!! te voy a esperar
General
ID                                       : 1 (0x1)
Complete name                            : K:BDMVSTREAM0000.m2ts
Format                                   : BDAV
Format/Info                              : Blu-ray Video
File size                                : 7.50 GiB
Duration                                 : 2h 50mn
Overall bit rate mode                    : Variable
Overall bit rate                         : 6 284 Kbps
Maximum Overall bit rate                 : 35.5 Mbps

Video
ID                                       : 4113 (0x1011)
Menu ID                                  : 1 (0x1)
Format                                   : AVC
Format/Info                              : Advanced Video Codec
Format profile                           : [email protected]
Format settings, CABAC                   : Yes
Format settings, ReFrames                : 3 frames
Codec ID                                 : 27
Duration                                 : 2h 50mn
Bit rate mode                            : Variable
Bit rate                                 : 4 589 Kbps
Maximum bit rate                         : 40.0 Mbps
Width                                    : 1 920 pixels
Height                                   : 1 080 pixels
Display aspect ratio                     : 16:9
Frame rate                               : 23.976 fps
Color space                              : YUV
Chroma subsampling                       : 4:2:0
Bit depth                                : 8 bits
Scan type                                : Progressive
Bits/(Pixel*Frame)                       : 0.092
Stream size                              : 5.67 GiB (75%)
Writing library                          : x264 core 75 r1259 dd026f2
Encoding settings                        : cabac=1 / ref=3 / deblock=1:0:0 / analyse=0x3:0x113 / me=hex / subme=7 / psy=1 / psy_rd=1.0:0.0 / mixed_ref=1 / me_range=16 / chroma_me=1 / trellis=1 / 8x8dct=1 / cqm=0 / deadzone=21,11 / chroma_qp_offset=-2 / threads=6 / slices=4 / nr=0 / decimate=1 / mbaff=0 / bframes=3 / b_pyramid=0 / b_adapt=1 / b_bias=0 / direct=1 / wpredb=1 / keyint=24 / keyint_min=1 / scenecut=40 / rc_lookahead=24 / rc=2pass / mbtree=1 / bitrate=4589 / ratetol=1.0 / qcomp=0.60 / qpmin=0 / qpmax=51 / qpstep=4 / cplxblur=20.0 / qblur=0.5 / vbv_maxrate=17500 / vbv_bufsize=14500 / ip_ratio=1.10 / aq=1:1.0

Audio #1
ID                                       : 4352 (0x1100)
Menu ID                                  : 1 (0x1)
Format                                   : AC-3
Format/Info                              : Audio Coding 3
Mode extension                           : CM (complete main)
Codec ID                                 : 129
Duration                                 : 2h 50mn
Bit rate mode                            : Constant
Bit rate                                 : 640 Kbps
Channel(s)                               : 6 channels
Channel positions                        : Front: L C R, Side: L R, LFE
Sampling rate                            : 48.0 KHz
Bit depth                                : 16 bits
Compression mode                         : Lossy
Stream size                              : 783 MiB (10%)
Language                                 : English

Audio #2
ID                                       : 4353 (0x1101)
Menu ID                                  : 1 (0x1)
Format                                   : AC-3
Format/Info                              : Audio Coding 3
Mode extension                           : CM (complete main)
Codec ID                                 : 129
Duration                                 : 2h 50mn
Bit rate mode                            : Constant
Bit rate                                 : 640 Kbps
Channel(s)                               : 6 channels
Channel positions                        : Front: L C R, Side: L R, LFE
Sampling rate                            : 48.0 KHz
Bit depth                                : 16 bits
Compression mode                         : Lossy
Stream size                              : 783 MiB (10%)
Language                                 : Spanish
sorry pero se me descomprimio un iso ?
Cita kid90: Mostrar
@saieh  men como puedo verla??? tengo la iso solo la puedo ver grabandola  en un cd??? o hay algun programa q me puedas recomendar para verla de antemano gracias!!!!
obio cn el daemon tools es gratis buscalo n google http://www.daemon-tools.cc/eng/downloads
@saieh lo estaba haciendo con el alcohol 120 pero no la puedo ver....
Cita chandy: Mostrar

amigo no se si ya logras tes ver la movie, pero necesitas los siguiente programas DAEMON TOLL Y BSPLAYER este es para visualizar la pel?
eso mismo pero yo la vo cn el k-lite codec pack 10
  vamos a ver si me resulta creo que ese programa me faltaba mxas gracias a @moran84 y @saieh nuevamente es bueno tu post
Cita chandy: Mostrar

 
me anduvo perfecto mxas gracias!!!!!
La carpeta a sido SUSPENDIDA ya no se puede descargar la peli...MALDITO MEDIAFIRE!!!
Y TENIA DESCARGADOS 72 LINKS DE 73 ...csm!!!
ya no hay manera de resubirlos amigo
o el dlc sirve???
Para dejar un comentario Registrate! o.. eres ya usuario? Accede!