Oops.. Este post tiene los enlaces eliminados!

Identi revisa las denuncias de los usuarios en busca de enlaces eliminados que no dejan descargar los archivos, este mensaje te informa que este post que estas viendo tiene los enlaces eliminados.

Usa el Buscador

Por favor, te recomendamos que uses el buscador para encontrar más alternativas.

Noche de miedo (2011) espa?ol

  • Categoría: Reciclaje
  • Publicado hace más de 5 años
Noche de miedo (2011) [TS-Screener HQ PROPER] [Castellano


TÍTULO ORIGINAL Fright Night
 AÑO 2011
 106 min.
 PAÍS [Estados Unidos]
 DIRECTOR Craig Gillespie
 GUIÓN Marti Noxon (Remake: Tom Holland)
 MÚSICA Ramin Djawadi
 FOTOGRAFÍA Javier Aguirresarobe
 REPARTO Anton Yelchin, Colin Farrell, David Tennant, Imogen Poots, Toni Collette, Christopher Mintz-Plasse, Dave Franco
 PRODUCTORA DreamWorks SKG / Gaeta / Rosenzweig Films / Michael De Luca Productions / Reliance Big Entertainment
 GÉNERO Terror. Comedia | Comedia de terror. Vampiros. Remake. 3-D
 Durante su último año en el instituto, Charlie  Brewster (Anton Yelchin) parece que por fin ha alcanzado todos sus  objetivos: es uno de los estudiantes más valorados y sale con la chica  más deseada del centro. Su popularidad es tal que ha comenzado a dejar  de lado a su mejor amigo. Sin embargo, cuando Jerry (Colin Farrell) se  convierte en su vecino, aunque, al principio, le parece un tipo genial,  con el paso del tiempo empieza a percibir en él algo extraño.  Desgraciadamente nadie, ni siquiera la madre de Charlie (Toni Collette),  se da cuenta de nada. Después de observar que en la casa de Jerry pasan  cosas extrañas, Charlie llega a la conclusión de que su vecino es un  vampiro que se sirve del vecindario para cazar a sus presas. Ante la  incredulidad de los demás, el protagonista deberá ingeniárselas para  deshacerse del monstruo por sí solo en esta moderna versión del clásico  de la comedia y el terror dirigida por Craig Gillespie.
 NOTAS: Versión  con audio sincronizado ya que el anterior estaba mal a partir de la  mitad de la peli. Se agrego un audio sin tanta distorción por el  ambiente para que el sonido sea más limpio y agradable.
MediaInfo
Format : AVI
 Format/Info : Audio Video Interleave
 File size : 1.53 GiB
 Duration : 1h 38mn  Overall bit rate : 2 224 Kbps Writing application : VirtualDubMod 1.5.10.2 (build 2540/release) Writing library : VirtualDubMod build 2540/release
 Video ID : 0
 Format : MPEG-4 Visual
 Format profile : Advanced [email protected]
 Format settings, BVOP : 2
 Format settings, QPel : No
 Format settings, GMC : No warppoints
 Format settings, Matrix : Default (MPEG)
 Muxing mode : Packed bitstream
 Codec ID : XVID
 Codec ID/Hint : XviD
 Duration : 1h 38mn
 Bit rate : 1 956 Kbps
 Width : 720 pixels
 Height : 304 pixels
 Display aspect ratio : 2.35:1
 Frame rate : 29.970 fps
 Color space : YUV
 Chroma subsampling : 4:2:0
 Bit depth : 8 bits
 Scan type : Progressive
 Compression mode : Lossy
 Bits/(Pixel*Frame) : 0.298
 Stream size : 1.34 GiB (88%)
 Writing library : XviD 64
 Audio
 ID : 1
 Format : MPEG Audio
 Format version : Version 1
 Format profile : Layer 3
 Codec ID : 55
 Codec ID/Hint : MP3
 Duration : 1h 38mn
 Bit rate mode : Constant
 Bit rate : 256 Kbps
 Channel(s) : 2 channels
 Sampling rate : 44.1 KHz
 Compression mode : Lossy
 Stream size : 180 MiB (12%)
 Alignment : Split accross interleaves
 Interleave, duration : 33 ms (1.00 video frame)
 Interleave, preload duration : 500 ms
[size=18]CAPTURAS[/size]

 
 
 
[COLOR="Blue"]dDESCAGAR[/COLOR] AQUI
http://www.miurl.es/0th
Noche de miedo (2011) espa?ol
0 Puntos Score: 0/10
Visitas: 476 Favoritos: 0
Más del Autor...
No se encontraron más posts
3 Comentarios Noche de miedo (2011) espa?ol
La verdad que esta peli tengo muchas ganas de verla, pero con un post tan desprolijo ni me arriesgo a bajarla...  
enlaces no son validos de Mediafire.. por favor ayuden a la comunidad.  
Para dejar un comentario Registrate! o.. eres ya usuario? Accede!