B.O.B. La Pasa Bomba 3D (corto animado) - FULLHD

B.O.B. La Pasa Bomba 3D (corto animado) - FULLHD











Prepárate para disfrutar de una sorprendente aventura en Monstruoso 3D!. En B.O.B. la Pasa Bomba, B.O.B. y su monstruoso equipo tienen como misión escapar de la celda de alto secreto del gobierno.



B.O.B. la Pasa Bomba -3D.divx
Año : 2008
Formato : AVI
Idioma : Español
Format/Info : Audio Video Interleave
Tamaño : 764 MiB
Duracion : 13mn 19s
Overall bit rate : 8 018 Kbps
Writing application : DivX 0.0.0.0000
IDFV : DMF 2.0.0
Video
Formato : MPEG-4 Visual
Formato settings, BVOP : Yes
Formato settings, QPel : No
Formaot settings, GMC : No warppoints
Formato settings, Matrix : Default
Codec ID : DX50
Codec ID/Hint : DivX 5
Duracion : 13mn 19s
Bit rate : 7 691 Kbps
Width : 1 920 pixels
Height : 1 080 pixels
Display aspect ratio : 16/9
Frame rate : 23.976 fps
Resolucion : 24 bits
Colorimetry : 4:2:0
Scan type : Progressive
Bits/(Pixel*Frame) : 0.155
Stream size : 733 MiB (96%)
Title : Video
Writing library : DivX 2991
Audio
Formato : MPEG Audio
Formato version : Version 1
Formato profile : Layer 3
Codec ID : 55
Codec ID/Hint : MP3
Duration : 13mn 19s
Bit rate mode : Constant
Bit rate : 320 Kbps
Channel(s) : 2 channels
Sampling rate : 48.0 KHz
Resolucion : 16 bits
Stream size : 30.5 MiB (4%)
Alignment : Split accross interleaves
Interleave, duration : 42 ms (1.00 video frame)
Interleave, preload duration : 500 ms



















http://www.mediafire.com/?cdgdv6mrt9gwktj
http://www.mediafire.com/?k5lon8i26e6adnk
http://www.mediafire.com/?grxrdhbo3h3a17o
http://www.mediafire.com/?vvr834caxa59cla

PARA PODER VER ESTE CORTO ES NECESARIO ESTAS GAFAS







¡¡ ESPERO QUE LA DISFRUTEN ¡¡
B.O.B. La Pasa Bomba 3D (corto animado) - FULLHD
10 Puntos Score: 5/10
Visitas: 2142 Favoritos: 0
Ver los usuarios que votaron...
6 Comentarios B.O.B. La Pasa Bomba 3D (corto animado) - FULLHD
Amigos, como puse al final del post, es necesario esas gafas, que son magenta y verde, se parecen mucho a las de anaglifo que son rojo y azul, y al igual que esas son muy f?
gracias lo intentare auque soy un asco en arte plasticas tecnico manual y esas mugres pero te felicito buen post y bien explicado
 
Interesante aporte  
@HUNTERXX   Ok amigo, de todos modos no creo que haga falta tanta habilidad en las artes manuales para poder hacerlo, de seguro y te va a salir de 10   , saludos y gracias por pasarte, SUERTE!!!  
@neofidodido Gracias por pasar amigo, saludos  
Buen aporte!!!!  
Para dejar un comentario Registrate! o.. eres ya usuario? Accede!