Shrek 3D anaglifo 1080p



General
Format          : MKV
File size        : 3.67 GiB
Duration         : 1h 30mn
Overall bit rate       : 5 829 Kbps
DUAL AUDIO: ESPAÑOL/INGLES 6 CANALES
SUBTITULOS: LATINO, SRT APARTE DENTRO DEL RAR


Video
ID          : 1
Format          : MPEG-4 Visual
Format profile      : Advanced [email protected]
Format settings, BVOP    : Yes
Format settings, QPel    : No
Format settings, GMC     : No warppoints
Format settings, Matrix   : Default (H.263)
Codec ID         : XVID
Codec ID/Hint      : XviD
Duration         : 1h 30mn
Bit rate         : 4 433 Kbps
Width          : 1 920 pixels
Height          : 1 080 pixels

Display
 aspect ratio     : 16:9
Frame rate        : 23.976 fps
Color
space
       : YUV
Chroma subsampling      : 4:2:0
Bit depth        : 8 bits
Scan type        : Progressive
Bits/(Pixel*Frame)      : 0.089
Stream size       : 2.79 GiB (76%)
Writing library       : XviD 1.2.1 (UTC 2008-12-04)


Audio
 #1
ID          : 2
Format          : AC-3
Format/Info       : Audio Coding 3
Mode extension      : CM (complete main)
Codec ID         : A_AC3
Duration         : 1h 30mn
Bit rate mode      : Constant
Bit rate         : 640 Kbps
Channel(s)        : 6 channels
Channel positions      : Front: L C R, Side: L R, LFE
Sampling rate      : 48.0 KHz
Bit depth        : 16 bits
Stream size       : 412 MiB (11%)

Audio #2
ID          : 3
Format          : AC-3
Format/Info       : Audio Coding 3
Mode extension      : CM (complete main)
Codec ID         : A_AC3
Duration         : 1h 30mn
Bit rate mode      : Constant
Bit rate         : 640 Kbps
Channel(s)        : 6 channels
Channel positions      : Front: L C R, Side: L R, LFE
Sampling rate      : 48.0 KHz
Bit depth        : 16 bits
Stream size       : 412 MiB (11%)

Capturas







http://www.mediafire.com/?nsy2hhwwtnxmu
Shrek 3D anaglifo 1080p
10 Puntos Score: 5/10
Visitas: 3114 Favoritos: 2
Ver los usuarios que votaron...
5 Comentarios Shrek 3D anaglifo 1080p
aparte de ingles es espa?
gracias estaba buscando por todos lados pelis 3d
realmente se ve muy bien, lastima que es espa?
Excelente hermano, empezare a descargarlo  
Para dejar un comentario Registrate! o.. eres ya usuario? Accede!