aaron.pasc
"El conocimiento es poder y la ignorancia una bendición."

Triptank [S2] 20/20 [1080p] [GD] [LAT/Dual]

Triptank - Temporada 02 - 1080p - Latino




Información:


Segunda entrega de la animación TripTank, la serie con sketches tan impactantes que deberian venir con dosis recomendada de consumo diario. Combinando numerosos estilos de animación y colaboradores como Zach Galifianakis (“Resacón en las Vegas”), los sketches presentados en forma de antología, han sido creados usando diferentes técnicas de diseño como el 2D y stop-motion entre otras, haciendo de cada uno de ellos una pieza única.







Ficha Técnica:
Video Captura:       UltimateFallen


General
Format                         : Matroska
Format version                 : Version 4 / Version 2
File size                      : 227 MiB
Duration                       : 21 min 18 s
Overall bit rate               : 1 487 kb/s
Writing application            : mkvmerge v20.0.0 ('I Am The Sun') 64-bit
Writing library                : libebml v1.3.5 + libmatroska v1.4.8

Video
ID                             : 1
Format                         : AVC
Format/Info                    : Advanced Video Codec
Format profile                 : [email protected]
Format settings                : CABAC / 4 Ref Frames
Format settings, CABAC         : Yes
Format settings, ReFrames      : 4 frames
Codec ID                       : V_MPEG4/ISO/AVC
Duration                       : 21 min 18 s
Bit rate                       : 1 100 kb/s
Width                          : 1 916 pixels
Height                         : 1 076 pixels
Display aspect ratio           : 16:9
Frame rate mode                : Constant
Frame rate                     : 23.976 (24000/1001) FPS
Color space                    : YUV
Chroma subsampling             : 4:2:0
Bit depth                      : 8 bits
Scan type                      : Progressive
Bits/(Pixel*Frame)             : 0.022
Stream size                    : 168 MiB (74%)
Writing library                : x264 core 148 r2708 86b7198
Language                       : English
Default                        : Yes
Forced                         : No
Color range                    : Limited
Color primaries                : BT.709
Transfer characteristics       : BT.709
Matrix coefficients            : BT.709

Audio #1
ID                             : 2
Format                         : AAC
Format/Info                    : Advanced Audio Codec
Format profile                 : Main
Codec ID                       : A_AAC-1
Duration                       : 21 min 18 s
Bit rate                       : 192 kb/s
Channel(s)                     : 2 channels
Channel positions              : Front: L R
Sampling rate                  : 44.1 kHz
Frame rate                     : 43.066 FPS (1024 SPF)
Compression mode               : Lossy
Delay relative to video        : -62 ms
Stream size                    : 29.3 MiB (13%)
Title                          : AAC 2.0
Language                       : Spanish
Default                        : Yes
Forced                         : No

Audio #2
ID                             : 4
Format                         : AAC
Format/Info                    : Advanced Audio Codec
Format profile                 : LC
Codec ID                       : A_AAC-2
Duration                       : 21 min 18 s
Bit rate                       : 192 kb/s
Channel(s)                     : 2 channels
Channel positions              : Front: L R
Sampling rate                  : 48.0 kHz
Frame rate                     : 46.875 FPS (1024 SPF)
Compression mode               : Lossy
Delay relative to video        : -62 ms
Stream size                    : 29.2 MiB (13%)
Title                          : AAC 2.0
Language                       : English
Default                        : No
Forced                         : No

Text
ID                             : 3
Format                         : UTF-8
Codec ID                       : S_TEXT/UTF8
Codec ID/Info                  : UTF-8 Plain Text
Duration                       : 3 min 39 s
Bit rate                       : 9 b/s
Count of elements              : 4
Stream size                    : 249 Bytes (0%)
Title                          : FORZADO
Language                       : Spanish
Default                        : Yes
Forced                         : Yes

Capturas:







Descarga:





Password:




descargar peliculas - descargar programas
66 Puntos Score: 8.3/10
Visitas: 730 Favoritos: 2
Ver los usuarios que votaron...
7 Comentarios Triptank [S2] 20/20 [1080p] [GD] [LAT/Dual]
@tobosillo listo. Subi la temporada 2. Que la  disfrutes.
Gracias man veremos que onda saludos
Buena bro!! Muchas gracias  
Para dejar un comentario Registrate! o.. eres ya usuario? Accede!
Facebook Identi