aaron.pasc
"El conocimiento es poder y la ignorancia una bendición."

Explained S1E3/?|Netflix|Latino|720p|GD|2018



Capítulo: Monogamia


Información:


LO SUBIRE DE ACUERDO AL TIEMPO QUE TENGA! NO PUEDO POSTEARLO TODA LA TEMPORADA EN UN POST, PORQUE ESTÁ EN EMISIÓN Y PORQUE NO HE TERMINADO DE GRABARLOS.

Interesante documental donde tocarán diferentes temas por episodio y explica las principales características de cada uno.
Ficha Técnica:

Video
ID                             : 1
Format                         : AVC
Format/Info                    : Advanced Video Codec
Format profile                 : [email protected]3.1
Format settings                : CABAC / 1 Ref Frames
Format settings, CABAC         : Yes
Format settings, ReFrames      : 1 frame
Codec ID                       : avc1
Codec ID/Info                  : Advanced Video Coding
Duration                       : 17 min 22 s
Bit rate                       : 1 354 kb/s
Width                          : 1 280 pixels
Height                         : 720 pixels
Display aspect ratio           : 16:9
Frame rate mode                : Constant
Frame rate                     : 29.970 (30000/1001) FPS
Color space                    : YUV
Chroma subsampling             : 4:2:0
Bit depth                      : 8 bits
Scan type                      : Progressive
Bits/(Pixel*Frame)             : 0.049
Stream size                    : 165 MiB (93%)
Writing library                : x264 core 129


Audio
ID                             : 2
Format                         : AAC
Format/Info                    : Advanced Audio Codec
Format profile                 : LC
Codec ID                       : mp4a-40-2
Duration                       : 17 min 22 s
Duration_FirstFrame            : 64 ms
Bit rate mode                  : Variable
Bit rate                       : 93.6 kb/s
Maximum bit rate               : 192 kb/s
Channel(s)                     : 2 channels
Channel positions              : Front: L R
Sampling rate                  : 48.0 kHz
Frame rate                     : 46.875 FPS (1024 SPF)
Compression mode               : Lossy
Stream size                    : 11.6 MiB (7%)
Default                        : Yes
Alternate group                : 1

RENOMBRAR ARCHIVO A ".RAR" y Extraer con versión 5+ de Winrar.











Password:

www.identi.li

descargar peliculas - descargar programas
5 Puntos Score: 5/10
Visitas: 535 Favoritos: 0
Ver los usuarios que votaron...
0 Comentarios Explained S1E3/?|Netflix|Latino|720p|GD|2018
Este post no tiene comentarios. Sea el primero!
Para dejar un comentario Registrate! o.. eres ya usuario? Accede!
Facebook Identi