aaron.pasc
"El conocimiento es poder y la ignorancia una bendición."

Explained S1E2/?|Netflix|Latino|720p|GD|2018



Capítulo: K-Pop

Información:

LO SUBIRE DE ACUERDO AL TIEMPO QUE TENGA! NO PUEDO POSTEARLO TODA LA TEMPORADA EN UN POST, PORQUE ESTÁ EN EMISIÓN Y PORQUE NO HE TERMINADO DE GRABARLOS.

Interesante documental donde tocarán diferentes temas por episodio y explica las principales características de cada uno.


Ficha Técnica:

General

Format                         : MPEG-4
Format profile                 : Base Media
Codec ID                       : isom (isom/iso2/avc1/mp41)
File size                      : 208 MiB
Duration                       : 19 min 51 s
Overall bit rate mode          : Variable
Overall bit rate               : 1 466 kb/s
Writing application            : Lavf54.63.104

Video
ID                             : 1
Format                         : AVC
Format/Info                    : Advanced Video Codec
Format profile                 : [email protected]
Format settings                : CABAC / 1 Ref Frames
Format settings, CABAC         : Yes
Format settings, ReFrames      : 1 frame
Codec ID                       : avc1
Codec ID/Info                  : Advanced Video Coding
Duration                       : 19 min 51 s
Bit rate                       : 1 354 kb/s
Width                          : 1 280 pixels
Height                         : 720 pixels
Display aspect ratio           : 16:9
Frame rate mode                : Constant
Frame rate                     : 29.970 (30000/1001) FPS
Color space                    : YUV
Chroma subsampling             : 4:2:0
Bit depth                      : 8 bits
Scan type                      : Progressive
Bits/(Pixel*Frame)             : 0.049
Stream size                    : 194 MiB (93%)
Writing library                : x264 core 129

Audio
ID                             : 2
Format                         : AAC
Format/Info                    : Advanced Audio Codec
Format profile                 : LC
Codec ID                       : mp4a-40-2
Duration                       : 19 min 51 s
Duration_FirstFrame            : 64 ms
Bit rate mode                  : Variable
Bit rate                       : 96.0 kb/s
Maximum bit rate               : 192 kb/s
Channel(s)                     : 2 channels
Channel positions              : Front: L R
Sampling rate                  : 48.0 kHz
Frame rate                     : 46.875 FPS (1024 SPF)
Compression mode               : Lossy
Stream size                    : 13.5 MiB (6%)
Default                        : Yes
Alternate group                : 1


RENOMBRAR ARCHIVO A ".RAR" y Extraer con versión 5+ de Winrar.





Password:


descargar peliculas - descargar programas
36 Puntos Score: 7.2/10
Visitas: 346 Favoritos: 0
Ver los usuarios que votaron...
4 Comentarios Explained S1E2/?|Netflix|Latino|720p|GD|2018
Gracias por el aporte...  Como haces para grabarlos de NF?  Que programas usas?  Saludos
@DaGuy Un gusto compartir. Pues.. nada del otro mundo, el clásico Camtasia studio, con la mejor resolución posible gracias a SuperNetflix, una extensión que te da ajustes adicionales para que sea constante la calidad, y el mejor truco de todos, poner el mouse al reves, para no moverlo, y comenzar a grabar antes del capitulo que quiero,para que no salgan los controles el reproductor. No soy experto en ripeos del Flix..   pero la idea es compartir.
Muchas gracias por el dato...  No se me hubiera ocurrido lo de dar vuelta el raton!!  Haha...  
muchas gracias
Para dejar un comentario Registrate! o.. eres ya usuario? Accede!
Facebook Identi