aaron.pasc
"El conocimiento es poder y la ignorancia una bendición."

Explained S1E1/?|Netflix|Latino|720p|GD|2018



Capítulo: Criptomoneda

Información:

Interesante documental donde tocarán diferentes temas por episodio y explica las principales características de cada uno.

Ficha técnica:

Format                         : AVC
Format/Info                    : Advanced Video Codec
Format profile                 : [email protected]
Format settings                : CABAC / 1 Ref Frames
Format settings, CABAC         : Yes
Format settings, ReFrames      : 1 frame
Codec ID                       : avc1
Codec ID/Info                  : Advanced Video Coding
Duration                       : 13 min 27 s
Bit rate                       : 1 104 kb/s
Width                          : 1 280 pixels
Height                         : 720 pixels
Display aspect ratio           : 16:9
Frame rate mode                : Constant
Frame rate                     : 29.970 (30000/1001) FPS
Color space                    : YUV
Chroma subsampling             : 4:2:0
Bit depth                      : 8 bits
Scan type                      : Progressive
Bits/(Pixel*Frame)             : 0.040
Stream size                    : 105 MiB (92%)
Writing library                : x264 core 129


Audio
ID                             : 2
Format                         : AAC
Format/Info                    : Advanced Audio Codec
Format profile                 : LC
Codec ID                       : mp4a-40-2
Duration                       : 13 min 27 s
Duration_FirstFrame            : 64 ms
Bit rate mode                  : Variable
Bit rate                       : 91.4 kb/s
Maximum bit rate               : 192 kb/s
Channel(s)                     : 2 channels
Channel positions              : Front: L R
Sampling rate                  : 48.0 kHz
Frame rate                     : 46.875 FPS (1024 SPF)
Compression mode               : Lossy
Stream size                    : 8.81 MiB (8%)
Default                        : Yes
Alternate group                : 1

RENOMBRAR ARCHIVO A ".RAR" y Extraer con versión 5+ de Winrar.





Password:


descargar peliculas - descargar programas
52 Puntos Score: 7.4/10
Visitas: 607 Favoritos: 1
Ver los usuarios que votaron...
7 Comentarios Explained S1E1/?|Netflix|Latino|720p|GD|2018
Por favor, agrega la Ficha Técnica de Video (independiente de la información que venga en la captura). Gracias.
@LASZChile2 Listo! Corregiré el numero 2
@aaron.pasc muchas gracias  
Gracias!  Se ve interesante!
Interesante, no tendras en 1080p, Gracias.
@Misteryoso Lamentablemente aún no, si lo consigo lo publico. Tambien quisiera publicar Bill Nye Saves the world.
Para dejar un comentario Registrate! o.. eres ya usuario? Accede!
Facebook Identi