xeca_efe_u
"Solo Audio Latino 1080p y Subo a Mega"

Legends Of Tomorrow T3 Capitulo 6/22 Latino 1080p

DC
LEGENDS OF TOMORROW
TEMPORADA 3
Capitulo 6 / 22
Audio Latino
1080p WeB-DL





Después de la derrota de Eobard Thawne y su igualmente nefasta Legión del Mal, las Leyendas se enfrentan a una nueva amenaza creada por sus acciones al final de la temporada pasada. Al regresar a un momento en el que ya habían participado, han fracturado esencialmente la Cronología y creó anacronismos - una dispersión de personas, animales y objetos a través del tiempo. Nuestro equipo debe encontrar una manera de devolver todos los anacronismos a sus líneas de tiempo originales antes de que el tiempo se desmorone Pero antes de que nuestras Leyendas puedan volver a la acción, Rip Hunter y su recién creada Oficina del Tiempo llaman a sus métodos en cuestión. Con la Oficina del Tiempo efectivamente como los nuevos sheriffs en la ciudad, las Leyendas se disuelven - hasta Mick Rory está en medio de sus merecidas vacaciones en Aruba. Como una oportunidad para continuar su tiempo viajando heroicos, Sara no pierde tiempo en reunir a los Legends de nuevo juntos. "Nos reunimos con el inventor multimillonario Ray Palmer, el historiador no convencional convertido en superhéroe Nate Heywood, y el profesor Martin Stein y Jefferson" Jax "Jackson, quienes juntos forman al meta-humano Firestorm. Una vez reunidos, las Leyendas desafiarán la autoridad de la Oficina del Tiempo sobre la línea de tiempo e insisten en que por muy sucios que sean sus métodos, algunos problemas están más allá de las capacidades de la Oficina. Algunos problemas sólo pueden ser resueltos por las Leyendas.


















Tamaño:  1.6 gb Promedio
Resolución: 1912x1072p
Formato: MKV
Duracion: 44 min Promedio.
Codec: x264
Audio: Español Latino
Subtitulos: NO
Uploader : xeca_efe_up
Servidor: Mega

Contraseña : No Tiene


Video
ID                          : 1
Format                      : AVC
Format/Info                 : Advanced Video Codec
Format profile              : [email protected]
Format settings, CABAC      : Yes
Format settings, RefFrames  : 4 frames
Codec ID                    : V_MPEG4/ISO/AVC
Duration                    : 42 min 22 s
Bit rate                    : 5 150 kb/s
Width                       : 1 912 pixels
Height                      : 1 072 pixels
Display aspect ratio        : 16:9
Frame rate mode             : Constant
Frame rate                  : 23.976 FPS
Color space                 : YUV
Chroma subsampling          : 4:2:0
Bit depth                   : 8 bits
Scan type                   : Progressive
Bits/(Pixel*Frame)          : 0.105
Stream size                 : 1.52 GiB (97%)
Language                    : English
Default                     : Yes
Forced                      : No
Color range                 : Limited
Color primaries             : BT.709
Transfer characteristics    : BT.709
Matrix coefficients         : BT.709

Audio
ID                          : 2
Format                      : AAC
Format/Info                 : Advanced Audio Codec
Format profile              : LC
Codec ID                    : A_AAC
Duration                    : 42 min 22 s
Bit rate                    : 177 kb/s
Channel(s)                  : 2 channels
Channel positions           : Front: L R
Sampling rate               : 48.0 kHz
Frame rate                  : 46.875 FPS (1024 SPF)
Compression mode            : Lossy
Delay relative to video     : -42 ms
Stream size                 : 53.6 MiB (3%)
Title                       : Latino
Language                    : Spanish
Default                     : Yes
Forced                      : No



MEGA
dividido en partes rar sin contraseña ...
descargar peliculas - descargar programas
37 Puntos Score: 7.4/10
Visitas: 518 Favoritos: 1
Ver los usuarios que votaron...
6 Comentarios Legends Of Tomorrow T3 Capitulo 6/22 Latino 1080p
Amigo podrías solo subir el audio. Gracias...
Qué bueno! Muchísimas gracias!!!  
Para dejar un comentario Registrate! o.. eres ya usuario? Accede!
Facebook Identi