Chicago Justice S01 1080p WEB-DL x265 [Lat - Ing]
























Duracion: 45 minutos aprox
Audio: Español Latino AC3 192KBPS  2.0
Fuente del Audio: TV / GRACIAS A @METROGMAIL POR LOS AUDIOS
Fuente del Video: 1080p WEB-DL 
ARCHIVO : MKV

SERVIDOR: GOOGLE DRIVE




Chicago Justice S01 1080p WEB-DL x265 [Dual Latino - Ingles]\Chicago Justice S01E01 Fake 1080p WEB-DL x265 [Dual Latino - Ingles].mkv
Format                      : Matroska
Format version              : Version 4 / Version 2
File size                   : 488 MiB
Duration                    : 42 min 54 s
Overall bit rate            : 1 589 kb/s
Movie name                  : Chicago Justice S01E01
Description                 : Encoded
Encoded date                : UTC 2017-11-08 11:52:03
Writing application         : mkvmerge v16.0.0 ('Protest') 64-bit
Writing library             : libebml v1.3.5 + libmatroska v1.4.8 / Lavf57.56.101
Cover                       : Yes
Attachments                 : cover.jpg
GROUP                       : ViSUM

Video
ID                          : 1
Format                      : HEVC
Format/Info                 : High Efficiency Video Coding
Format profile              : [email protected]@Main
Codec ID                    : V_MPEGH/ISO/HEVC
Duration                    : 42 min 53 s
Bit rate                    : 1 008 kb/s
Width                       : 1 920 pixels
Height                      : 1 080 pixels
Display aspect ratio        : 16:9
Frame rate mode             : Variable
Frame rate                  : 23.976 FPS
Color space                 : YUV
Chroma subsampling          : 4:2:0
Bit depth                   : 8 bits
Bits/(Pixel*Frame)          : 0.020
Stream size                 : 309 MiB (63%)
Writing library             : x265 2.2+35-fe2f2dd96f8c:[Linux][GCC 5.4.1][64 bit] 8bit+10bit+12bit
Encoding settings           : cpuid=1173503 / frame-threads=3 / wpp / no-pmode / no-pme / no-psnr / no-ssim / log-level=2 / input-csp=1 / input-res=1920x1080 / interlace=0 / total-frames=0 / level-idc=0 / high-tier=1 / uhd-bd=0 / ref=3 / no-allow-non-conformance / no-repeat-headers / annexb / no-aud / no-hrd / info / hash=0 / no-temporal-layers / open-gop / min-keyint=23 / keyint=250 / bframes=4 / b-adapt=2 / b-pyramid / bframe-bias=0 / rc-lookahead=20 / lookahead-slices=6 / scenecut=40 / no-intra-refresh / ctu=64 / min-cu-size=8 / no-rect / no-amp / max-tu-size=32 / tu-inter-depth=1 / tu-intra-depth=1 / limit-tu=0 / rdoq-level=0 / dynamic-rd=0.00 / signhide / no-tskip / nr-intra=0 / nr-inter=0 / no-constrained-intra / strong-intra-smoothing / max-merge=2 / limit-refs=3 / no-limit-modes / me=1 / subme=2 / merange=57 / temporal-mvp / weightp / no-weightb / no-analyze-src-pics / deblock=0:0 / sao / no-sao-non-deblock / rd=3 / no-early-skip / rskip / no-fast-intra / no-tskip-fast / no-cu-lossless / no-b-intra / rdpenalty=0 / psy-rd=2.00 / psy-rdoq=0.00 / no-rd-refine / analysis-mode=0 / no-lossless / cbqpoffs=0 / crqpoffs=0 / rc=crf / crf=23.5 / qcomp=0.60 / qpstep=4 / stats-write=0 / stats-read=0 / ipratio=1.40 / pbratio=1.30 / aq-mode=1 / aq-strength=1.00 / cutree / zone-count=0 / no-strict-cbr / qg-size=32 / no-rc-grain / qpmax=69 / qpmin=0 / sar=1 / overscan=0 / videoformat=5 / range=0 / colorprim=2 / transfer=2 / colormatrix=2 / chromaloc=0 / display-window=0 / max-cll=0,0 / min-luma=0 / max-luma=255 / log2-max-poc-lsb=8 / vui-timing-info / vui-hrd-info / slices=1 / opt-qp-pps / opt-ref-list-length-pps / no-multi-pass-opt-rps / scenecut-bias=0.05 / no-opt-cu-delta-qp / no-aq-motion / no-hdr
Default                     : Yes
Forced                      : No

Audio #1
ID                          : 2
Format                      : AC-3
Format/Info                 : Audio Coding 3
Mode                        : Dolby Digital
Format settings, Endianness : Big
Codec ID                    : A_AC3
Duration                    : 42 min 53 s
Bit rate mode               : Constant
Bit rate                    : 192 kb/s
Channel(s)                  : 2 channels
Channel positions           : Front: L R
Sampling rate               : 48.0 kHz
Frame rate                  : 31.250 FPS (1536 SPF)
Bit depth                   : 16 bits
Compression mode            : Lossy
Stream size                 : 58.9 MiB (12%)
Language                    : Spanish
Service kind                : Complete Main
Default                     : Yes
Forced                      : No

Audio #2
ID                          : 3
Format                      : AAC
Format/Info                 : Advanced Audio Codec
Format profile              : LC
Codec ID                    : A_AAC
Duration                    : 42 min 54 s
Bit rate                    : 384 kb/s
Channel(s)                  : 6 channels
Channel positions           : Front: L C R, Side: L R, LFE
Sampling rate               : 48.0 kHz
Frame rate                  : 46.875 FPS (1024 SPF)
Compression mode            : Lossy
Stream size                 : 118 MiB (24%)
Writing library             : Lavc57.64.101 aac
Language                    : English
Default                     : No
Forced                      : No

Text
ID                          : 4
Format                      : ASS
Codec ID                    : S_TEXT/ASS
Codec ID/Info               : Advanced Sub Station Alpha
Duration                    : 42 min 48 s
Bit rate                    : 140 b/s
Count of elements           : 844
Compression mode            : Lossless
Stream size                 : 44.1 KiB (0%)
Writing library             : Lavc57.64.101 ssa
Language                    : English
Default                     : No
Forced                      : No




descargar peliculas - descargar programas
30 Puntos Score: 10/10
Visitas: 330 Favoritos: 1
Ver los usuarios que votaron...
4 Comentarios Chicago Justice S01 1080p WEB-DL x265 [Lat - Ing]
Gracias por compartir
muchas gracias por el aporte y la calidad de la serie  
Para dejar un comentario Registrate! o.. eres ya usuario? Accede!
Facebook Identi