Dragon Ball Super 109-110 WEB-DL 1080p



Dragon Ball Super 109-110 WEB-DL 1080p

FICHA TÉCNICA
TÍTULO ORIGINAL: Dragon Ball Super / Dragon Ball Chou (Super)
AÑO: 2015
PAÍS: Japón
DURACIÓN: 46 min 44 seg.
DIRECTOR: Chioka Kimitoshi
REPARTO: Animation
DISEÑO: Yamamuro Naoyoshi
GUIÓN: Akira Toriyama
MÚSICA: Norihito Sumitomo
FOTOGRAFÍA: Animation
PRODUCTORA: Toei Animation
FUENTE: Manga
GÉNERO: Action, Adventure, Comedy, Martial Arts, Shounen, Super Power, Fantasy
FECHA DE EMISIÓN: 05 Julio 2015

Esta es la versión completa, sin editar de WEB-DL de los episodios 109 y 110 de Dragon Ball Super, ya que se emitieron en Japón en un solo formato de episodio de 45 minutos. La versión de Crunchyroll (HorribleSubs) que fue transmitida simultáneamente se dividió en dos episodios separados y falta material encontrado en este lanzamiento. Esta versión de Funimation también tiene mayor video bitrate que  la version  Crunchyroll (HorribleSubs).

Los subtitulos son extraidos de la version  Crunchyroll (HorribleSubs) sincronizados y trabajados por mi:

http://www.subdivx.com/X6XNTE1NzUxX-dragon-ball-super-episodio-109-110.html

Format                      : Matroska
Format version              : Version 4 / Version 2
File size                   : 2.68 GiB
Duration                    : 46 min 44 s
Overall bit rate            : 8 210 kb/s
Movie name                  : Dragon Ball Super: 109/110 - The Ultimate Enemy Approaches Goku! Now, Let Loose! The Killer Spirit Bomb!! / Son Goku Wakes! New Level of the Awakened!!
Encoded date                : UTC 2017-10-09 00:04:46
Writing application         : mkvmerge v16.0.0 ('Protest') 64-bit
Writing library             : libebml v1.3.5 + libmatroska v1.4.8

Video
ID                          : 1
Format                      : AVC
Format/Info                 : Advanced Video Codec
Format profile              : [email protected]
Format settings             : CABAC / 4 Ref Frames
Format settings, CABAC      : Yes
Format settings, RefFrames  : 4 frames
Codec ID                    : V_MPEG4/ISO/AVC
Duration                    : 46 min 44 s
Bit rate                    : 8 000 kb/s
Width                       : 1 920 pixels
Height                      : 1 080 pixels
Display aspect ratio        : 16:9
Frame rate mode             : Constant
Frame rate                  : 23.976 (24000/1001) FPS
Color space                 : YUV
Chroma subsampling          : 4:2:0
Bit depth                   : 8 bits
Scan type                   : Progressive
Bits/(Pixel*Frame)          : 0.161
Stream size                 : 2.60 GiB (97%)
Writing library             : x264 core 150 r2833 df79067
Encoding settings           : cabac=1 / ref=1 / deblock=1:0:0 / analyse=0x3:0x113 / me=hex / subme=7 / psy=1 / psy_rd=1.00:0.00 / mixed_ref=0 / me_range=16 / chroma_me=1 / trellis=1 / 8x8dct=1 / cqm=0 / deadzone=21,11 / fast_pskip=1 / chroma_qp_offset=-2 / threads=24 / lookahead_threads=4 / sliced_threads=0 / nr=0 / decimate=1 / interlaced=0 / bluray_compat=0 / constrained_intra=0 / bframes=2 / b_pyramid=2 / b_adapt=1 / b_bias=0 / direct=1 / weightb=1 / open_gop=0 / weightp=2 / keyint=48 / keyint_min=4 / scenecut=40 / intra_refresh=0 / rc_lookahead=40 / rc=cbr / mbtree=1 / bitrate=8000 / ratetol=1.0 / qcomp=0.60 / qpmin=0 / qpmax=69 / qpstep=4 / vbv_maxrate=8000 / vbv_bufsize=24000 / nal_hrd=none / filler=0 / ip_ratio=1.40 / aq=1:1.00
Language                    : Japanese
Default                     : Yes
Forced                      : No

Audio
ID                          : 2
Format                      : AAC
Format/Info                 : Advanced Audio Codec
Format profile              : LC
Codec ID                    : A_AAC-2
Duration                    : 46 min 44 s
Bit rate                    : 253 kb/s
Channel(s)                  : 2 channels
Channel positions           : Front: L R
Sampling rate               : 48.0 kHz
Frame rate                  : 46.875 FPS (1024 SPF)
Compression mode            : Lossy
Delay relative to video     : -42 ms
Stream size                 : 84.7 MiB (3%)
Language                    : Japanese
Default                     : Yes
Forced                      : No

Text
ID                          : 3
Format                      : UTF-8
Codec ID                    : S_TEXT/UTF8
Codec ID/Info               : UTF-8 Plain Text
Duration                    : 46 min 5 s
Bit rate                    : 42 b/s
Count of elements           : 476
Stream size                 : 14.5 KiB (0%)
Language                    : English
Default                     : Yes
Forced                      : Yes





https://mega.nz/#!QqYlVJjb!rVmDdtf6RsLyefSGypoOuxMeWX5gFj96jrDcn0bIgnw
https://mega.nz/#!JyAnTBjD!3erk4NptxRYEio-N_ACU9HR_ZIEWvtEoFq5jOgOsYhk
https://mega.nz/#!omZwEKaT!o2j3OcBLVOWJgH5u3NenNz0auaUnn1GYNm-H_HSS7dg
https://mega.nz/#!l6JGCSwS!JTRQ8nQtU0NZ_rf53xjZ-ijCEsGZ-HIAqVDok4gVLiQ
https://mega.nz/#!o3JHkYgC!RSDCUWzIpCXeJqBoM9V38oNfOVFDA06cGYyoXAU_Jxg
https://mega.nz/#!knAXgSKL!x_fuzrg7FyWj7sH7kozWzbEB5lYJ-WG9wCh4ghiEjVo
descargar peliculas - descargar programas
10 Puntos Score: 10/10
Visitas: 627 Favoritos: 0
Ver los usuarios que votaron...
Más del Autor...
No se encontraron más posts
4 Comentarios Dragon Ball Super 109-110 WEB-DL 1080p
la escena de cuando Daishinkan protege a los zeno samas esta en el capitulo? pregunto xq en otros capitulos no esta esa escena ???
tendras los subtitulos en español?
Cita arthur69: Mostrar
si que esta, cuando explota la genkidama
Cita arthur69: Mostrar
te invito a leer todo el post, ahi los encontraras
Para dejar un comentario Registrate! o.. eres ya usuario? Accede!
Facebook Identi