Game of Thrones Temporada 7 UltraHD 4K Trial Audio






Game of Thrones Temporada 7 HD 1080p Español Latino 2017 (Juego de tronos temporada 7). Desde el final de la temporada 6, los fanáticos de Game of Thrones estaban esperando que se anuncie cuándo vuelve la ficción a la pantalla. HBO finalmente lo reveló este lunes 18 de julio de 2016: aunque no dieron la fecha exacta, confirmaron que la séptima temporada se verá en el verano boreal de 2017 (el invierno del hemisferio sur). O sea que los nuevos episodios de la historia basada en los libros de George R.R. Martin retrasará su estreno respecto a los años anteriores.
Otra novedad será que la séptima temporada tendrá menos capítulos. En lugar de los 10 que solía ofrecer la serie, en esta oportunidad la penúltima temporada tendrá 7 episodios.
El rodaje de Game of Thrones será en Irlanda del Norte. También se usarán como locaciones de exteriores algunas ciudades de España (Sevilla, Cáceres, Almodóvar del Río, Santiponce, Zumaia y Bermeo) e Islandia. Entre los directores que estarán a cargo de los capítulos figuran Mark Mylod, Jeremy Podeswa, Matt Shakman y Alan Taylor.
La serie de HBO acaba de recibir 23 nominaciones a los Emmy 2016 y es la ficción favorita para la entrega de premios que se llevará a cabo el 18 de septiembre en Los Ángeles.







Capturas (Comparativa)

















Datos Técnicos

4K | 2160p | mkv | x265 | ~4.0GB | Audio 1: Español Latino AC3 2.0 / Audio 2: Inglés AC3 5.1 / Audio 3: Castellano AC3 5.1 | Subtítulos: Español SRT, Inglés SRT | Mega, Uptobox, Openload




MEDIAINFO


General

Format                      : Matroska
Format version              : Version 4 / Version 2
File size                   : 4.12 GiB
Duration                    : 51 min 21 s
Overall bit rate            : 11.5 Mb/s
Movie name                  : GOT 7x04 - The Spoils Of War
Encoded date                : UTC 2017-08-12 05:00:31
Writing application         : mkvmerge v8.4.0 ('A better way to fly') 64bit
Writing library             : libebml v1.3.1 + libmatroska v1.4.2


Video

ID                          : 1
Format                      : HEVC
Format/Info                 : High Efficiency Video Coding
Format profile              : [email protected]@High
Codec ID                    : V_MPEGH/ISO/HEVC
Duration                    : 51 min 21 s
Bit rate                    : 10.1 Mb/s
Width                       : 3 840 pixels
Height                      : 2 160 pixels
Display aspect ratio        : 16:9
Frame rate mode             : Constant
Frame rate                  : 23.976 (24000/1001) FPS
Color space                 : YUV
Chroma subsampling          : 4:2:0
Bit depth                   : 8 bits
Bits/(Pixel*Frame)          : 0.051
Stream size                 : 3.63 GiB (88%)
Title                       :
Language                    : English
Default                     : Yes
Forced                      : No
Color range                 : Full
Color primaries             : BT.709
Transfer characteristics    : BT.709
Matrix coefficients         : BT.709


Audio #1

ID                          : 2
Format                      : AC-3
Format/Info                 : Audio Coding 3
Format settings, Endianness : Big
Codec ID                    : A_AC3
Duration                    : 51 min 21 s
Bit rate mode               : Constant
Bit rate                    : 320 kb/s
Channel(s)                  : 2 channels
Channel positions           : Front: L R
Sampling rate               : 48.0 kHz
Frame rate                  : 31.250 FPS (1536 SPF)
Bit depth                   : 16 bits
Compression mode            : Lossy
Stream size                 : 118 MiB (3%)
Title                       : Latino
Language                    : Spanish
Service kind                : Complete Main
Default                     : Yes
Forced                      : No


Audio #2

ID                          : 3
Format                      : E-AC-3
Format/Info                 : Enhanced Audio Coding 3
Format settings, Endianness : Big
Codec ID                    : A_EAC3
Duration                    : 51 min 21 s
Bit rate mode               : Constant
Bit rate                    : 640 kb/s
Channel(s)                  : 6 channels
Channel positions           : Front: L C R, Side: L R, LFE
Sampling rate               : 48.0 kHz
Frame rate                  : 187.500 FPS (256 SPF)
Compression mode            : Lossy
Delay relative to video     : 7 ms
Stream size                 : 235 MiB (6%)
Title                       : Ingles
Language                    : English
Service kind                : Complete Main
Default                     : No
Forced                      : No


Audio #3

ID                          : 4
Format                      : AC-3
Format/Info                 : Audio Coding 3
Format settings, Endianness : Big
Codec ID                    : A_AC3
Duration                    : 51 min 21 s
Bit rate mode               : Constant
Bit rate                    : 384 kb/s
Channel(s)                  : 6 channels
Channel positions           : Front: L C R, Side: L R, LFE
Sampling rate               : 48.0 kHz
Frame rate                  : 31.250 FPS (1536 SPF)
Bit depth                   : 16 bits
Compression mode            : Lossy
Stream size                 : 141 MiB (3%)
Title                       : Castellano
Language                    : Spanish
Service kind                : Complete Main
Default                     : No
Forced                      : No


Text #1

ID                          : 5
Format                      : UTF-8
Codec ID                    : S_TEXT/UTF8
Codec ID/Info               : UTF-8 Plain Text
Duration                    : 51 min 17 s
Bit rate                    : 43 b/s
Count of elements           : 529
Stream size                 : 16.3 KiB (0%)
Title                       : Español SRT
Language                    : Spanish
Default                     : Yes
Forced                      : No


Text #2

ID                          : 6
Format                      : UTF-8
Codec ID                    : S_TEXT/UTF8
Codec ID/Info               : UTF-8 Plain Text
Duration                    : 51 min 6 s
Bit rate                    : 48 b/s
Count of elements           : 617
Stream size                 : 18.1 KiB (0%)
Title                       : Ingles SRT
Language                    : English
Default                     : No
Forced                      : No









ENLACES UPTOBOX







contraseña:
identikaiser






Si les gusta la Calidad y hay apoyo subiré todas las temporadas desde la 1 a la 6 en 4K UHD 2160p Trial Audio + Subs.
(Upscaled & Remasterized)



Att El Kaiserweb
descargar peliculas - descargar programas
282 Puntos Score: 7.8/10
Visitas: 4790 Favoritos: 27
Ver los usuarios que votaron...
53 Comentarios Game of Thrones Temporada 7 UltraHD 4K Trial Audio
Excelente, muchas gracias!!
Subiras el capitulo de hoy, Hoy?
ah si publicabas el 5 y 6 hubiera estado buenísimo, hoy daban el 5 ?
GENIOOOOOOOOOOOOOOOOOOOOOOOOOO!
gracias, aguardo los links de mega. muchas gracias!
@lLanister los episodios necesitan un remasterizado el cual toma tiempo, cada lunes subiré el episodio estreno
@serbarm2 amigo esos episodios aun no se estrenan no los podría postear aun
@iradali por nada disfruta la serie
@kaiserweb solo tengo una duda. es video 1080 upscale a 4k? oh como es?

espero no molesta, solo quiero salir de mi duda. Saludos
EXCELENTE APORTE
hola alguien sabe como cargarlo en algun dispocitivo para que se vea en un led 4k  saludos
@dpeliculas si amigo asi mismo como lo dices, incluso al final del post lo expongo es un trabajo de upscaling y remasterized, gracias por pasar
@kaiserweb
Increible aporte amigo , oye ¿podrias subirlo a google drive? ya ves que mega pone restricción de descargas
Gracias, deberías de subir toda la serie seria genial. +10
x2 @kaiserweb solo tengo una duda. es video 1080 upscale a 4k? oh como es?

espero no molesta, solo quiero salir de mi duda. Saludos Gracias
EXELENTE Ttrabajo muchas gracias
+5 gracias subalas
Excelente aporte, gracias
+5 gracias!!!!!! y seria genial que subas el resto de las temporadas.....
que buen trabajo amigo kaiserweb felicidades
@kaiserweb Buen trabajo sigue asi+10
Grandisimo post esperando enlaces de mega
Esperando en mega gracias por el Aporte  
Hola, gracias por el aporte, podrias suvirlo en googledriver o en otro server que pueda descargar sin limite. Saludos desde Panamá...
JSRAMIREZ  
Muchas Gracias--
Cuánto falta para que termine la subida de mega? +10
Bro, es con HDR?
tambien sin el afan de molestar, pero de donde se crea la calidad 4k si la fuente es un 1080p, pensando que el origen del 1080p es el bluray original (sin perdida de calidad de ripeo) , ya que la mayoria de los capitulos que abundan ya han perdido mucha calidad aún siendo 1080p y todavía escalarlos, en mi opinión solo es mucho peso inecesario   es sin el afán de molestar recalco, es como hacer un 1080p de un DVD, simplemente no se puede crear informacion de la nada
Yo me uno entre los que desean ver todas las temporadas en 4K UHD. Gracias por adelantado.
excelente aporte amigo muchas gracias  
gracias por el aporte, pero por curiosidad cuanto se demora en subir un capitulo? pq se que es algo lento
y donde vergg estan los enlaces de mega!!!!!!!!!!!!!! te dejo todos mi puntos cuando esten GRACIAS POR EL APORTE!!!
che lo baje y la verdad que muy buena la calidad, como se ve en las fotos, mejor brillo y mejor contraste.

Podrias explicar como lo haces tengo unos videos personales que me gustaria mejorar. y alguna peli
guau, maestro gracias...
Excelente aporte.
Así deben subir las series. Calidad pura.
@kaiserweb No lo subirás a mega?
Por favor sube todos desde las temporadas. De verdad agradezco mucho tu esfuerzo y tu tiempo que dedicas a subir cada capitulo, en verdad muchas gracias.
Muy buen trabajo, sería grandioso contar con las otras 6 temporadas en esta calidad, estaré pendiente de las demás, pero ojalá en mega, los otros servidores no van bien. Gracias nuevamente.
Muchas gracias, si pudieras subir los links a mega seria excepcional. Saludos.
La calidad es impresionante vale la pena los casi 5gb que pesa, deberias subir todas las temporadas en esta calidad pero a MEGA podrias cobrar una membresía en tu web para bajarlo algo como un VIP así como en otras paginas , la verdad por semejante calidad yo pagaría y me quedaría a gusto
@inuhide @rjr0782 @SantiRodri @Greiter gracias por la buena onda amigos, y claro ya estoy trabajando en todas las temporadas, ya tengo toda la 6 completa y casi terminando la 1 .
Sos un genio!!!!! la verdad que se agradece el laburo y aportar a esta calidad de imagen que es sorprendente
Geniooo!!! Te regalo 5 puntos que so los que me quedan.... x favor subi los que vienen!!
@kaiserweb se cayeron los links, podrias resubirlos me faltaron los capitulos 3 y 4.
Tambien a mi  me faltaron....resubelos por fa..gracias
@SantiRodri @Marquinho2 acabo de probar y los links están activos amigos
GENIAL !! OJALA ESTUBIERAN LOS ENLACES POR MEGA !  
Gracias Excelente aporte podrías subir las demás temporada.
que reproductor ocupas?
@yopintemiv cualquiera me sirve por las caracteristicas de mi pc, pero si tienes problema para levantar un 4k prueba media player home cinema que viene con klite codec pack mega
exelente aporte espero que subas el resto de las temporadas, y tengo una consulta:
aqui estan los del 1 a 6 que ya se transmitieron?
y disculpa la molestias pero lo puedes subir en mas servidores  
muchas gracias por tu esfuerzo.
@kenpuchi Hola no están todos pero ingresa a mi perfil ahí están todos los que se faltan
bajando exelente
Gracias por darte el trabajo de subirla en 4K con todo lo que esto conlleva.., te dejo +5 y espero puedas subir las temporadas de la 4 a la 6 en este espectacular formato asi como los capítulos restantes de la temporada 7 (5 al 7)
Para dejar un comentario Registrate! o.. eres ya usuario? Accede!
Facebook Identi