Oops.. Este post tiene los enlaces eliminados!

Identi revisa las denuncias de los usuarios en busca de enlaces eliminados que no dejan descargar los archivos, este mensaje te informa que este post que estas viendo tiene los enlaces eliminados.

Usa el Buscador

Por favor, te recomendamos que uses el buscador para encontrar más alternativas.

Kung Fu Magoo [2011][DVDRip][Latino]

  • Categoría: Reciclaje
  • Publicado hace más de 5 años




Kung Fu Magoo




Los "chicos malos" más notorios son invitados a la isla-fortaleza del súper villano Tan-Gu para competir en un Torneo del Mal, al estilo olímpico. El Sr. Magoo y su sobrino de 12 años, Justin, tendrán que pelear contra arañas robot gigantes, ninjas en jet skíes y contra los mutantes "Beasteens" de Tan-Gu, como representantantes de la fuerza de tarea anti-maldad.



Format : AVI
    Format/Info : Audio Video Interleave
    File size : 700 MiB
    Duration : 1h 19mn
    Overall bit rate : 1 237 Kbps
    Writing application : VirtualDubMod 1.5.4.1 (build 2178/release)
    Writing library : VirtualDubMod build 2178/release
  Video #0
    ID : 0
    Format : MPEG-4 Visual
    Format profile : [email protected]
    Format settings, BVOP : Yes
    Format settings, QPel : No
    Format settings, GMC : No warppoints
    Format settings, Matrix : Custom
    Codec ID : XVID
    Codec ID/Hint : XviD
    Duration : 1h 19mn
    Bit rate : 1 100 Kbps
    Width : 656 pixels
    Height : 496 pixels
    Display aspect ratio : 4:3
    Frame rate : 29.970 fps
    Resolution : 24 bits
    Colorimetry : 4:2:0
    Scan type : Progressive
    Bits/(Pixel*Frame) : 0.113
    Stream size : 623 MiB (89%)
    Writing library : XviD 64
  Audio #1
    ID : 1
    Format : MPEG Audio
    Format version : Version 1
    Format profile : Layer 3
    Codec ID : 55
    Codec ID/Hint : MP3
    Duration : 1h 19mn
    Bit rate mode : Constant
    Bit rate : 128 Kbps
    Channel(s) : 2 channels
    Sampling rate : 48.0 KHz
    Resolution : 16 bits
    Stream size : 72.4 MiB (10%)
    Alignment : Aligned on interleaves
    Interleave, duration : 67 ms (2.00 video frames)
    Interleave, preload duration : 504 ms
    Writing library : LAME3.98r
    Encoding settings : -m j -V 4 -q 2 -lowpass 17 -b 128
    Language : Spanish



















Kung Fu Magoo [2011][DVDRip][Latino]
5 Puntos Score: 5/10
Visitas: 1977 Favoritos: 2
Ver los usuarios que votaron...
4 Comentarios Kung Fu Magoo [2011][DVDRip][Latino]
Buenisimo, gracias por el aportazo amigo!!!   pero... cual es la contrase?
viene en un txt en el ultimo enlace de mediafire
Para dejar un comentario Registrate! o.. eres ya usuario? Accede!