xeca_efe_u
"Solo Audio Latino 1080p y Subo a Mega"

ShadowHunters T2 Cap 1 a 19 Latino 1080p WebDL

ShadowHunters
Temporada 2
Capitulos 19 de 20
Audio Latino
WeB-DL 1080p


La segunda temporada de Shadowhunters está basada en a serie literaria juvenil de Cazadores de sombras, escrita por la autora estadounidense Cassandra Clare, adaptada principalmente por McG y Ed Decter. Fue anunciada el 14 de marzo de 2016 tras darse la noticia de que Freeform renovaría la serie, y posteriormente se reveló que esta contaría con un total de 20 episodios.1 Sin embargo, Ed Decter, quien fue el show runner del programa durante su primera temporada, se retiró del proyecto debido a diferencias creativas y su cargo fue ocupado en conjunto por Todd Slavkin y Darren Swimmer.2 La temporada estrenó el 2 de enero de 2017 a través de Freeform.3

Los actores Katherine McNamara, Dominic Sherwood, Alberto Rosende, Matthew Daddario, Emeraude Toubia, Harry Shum, Jr. e Isaiah Mustafa volvieron a formar parte del elenco principal interpretando sus respectivos personajes de la primera temporada. Otros actores que también retornaron son Maxim Roy, Alan Van Sprang y David Castro, además que se introdujeron nuevos actores como Alisha Wainwright y Nick Sagar



















Tamaño:  1.62gb Aprox
Resolución: 1920x1080p WebDL
Formato: MKV
Duracion: 42:21
Codec: x264
Audio: Solo Español Latino
Subtitulos: No
Uploader : xeca_efe_up
Servidor: Mega

Contraseña : No



La Información dada es en base al último episodio posteado*

Video
ID                          : 1
Format                      : AVC
Format/Info                 : Advanced Video Codec
Format profile              : [email protected]
Format settings, CABAC      : Yes
Format settings, RefFrames  : 4 frames
Codec ID                    : V_MPEG4/ISO/AVC
Duration                    : 41 min 22 s
Bit rate                    : 5 184 kb/s
Width                       : 1 920 pixels
Height                      : 1 080 pixels
Display aspect ratio        : 16:9
Frame rate mode             : Constant
Frame rate                  : 23.976 (23976/1000) FPS
Color space                 : YUV
Chroma subsampling          : 4:2:0
Bit depth                   : 8 bits
Scan type                   : Progressive
Bits/(Pixel*Frame)          : 0.104
Stream size                 : 1.50 GiB (96%)
Language                    : English
Default                     : Yes
Forced                      : No
Color range                 : Limited
Color primaries             : BT.709
Transfer characteristics    : BT.709
Matrix coefficients         : BT.709

Audio
ID                          : 2
Format                      : AAC
Format/Info                 : Advanced Audio Codec
Format profile              : LC
Codec ID                    : A_AAC
Duration                    : 41 min 22 s
Bit rate                    : 196 kb/s
Channel(s)                  : 2 channels
Channel positions           : Front: L R
Sampling rate               : 48.0 kHz
Frame rate                  : 46.875 FPS (1024 SPF)
Compression mode            : Lossy
Stream size                 : 58.1 MiB (4%)
Language                    : English
Default                     : Yes
Forced                      : No
Capitulos 1 a 10






Capitulos 11 a 19




Audios Latinos aparte si alguien los necesita , recuerden que estos audios tienen intro en ingles ......






ShadowHunters Season 1 Latino 1080p WebDL
http://www.identi.li/index.php?topic=461399




Para Descargar de MEGA  sin restricciones usen este metodo que explico en mi post 

http://www.identi.li/index.php?topic=477132
descargar peliculas - descargar programas
20 Puntos Score: 10/10
Visitas: 451 Favoritos: 0
Ver los usuarios que votaron...
4 Comentarios ShadowHunters T2 Cap 1 a 19 Latino 1080p WebDL
Muchas gracias amigo por seguir compartiendo series en esta gran calidad.y gracias por invertir tu valioso tiempo con todos nosotros.saludos. aaa amigo perdona la patudez cuando tendremos otra temporada de supernatural? ya que la calidad de la serie que nos compartes es todo un lujo y en latino que mas se puede pedir.desde ya muchas gracias por todo.
Cita pillamito: Mostrar


La verdad me ha sido muy dificil capturar y sincronizar el audio , los videos que tengo con la versiones de netflix para sacar audios no cuadran en nada y hay que editar mucho cada capitulo , por eso he ido demaciado lento ademas que para cada capitulo me demoro mucho rato y el tiempo no me alcanza .

en shadow la captura y sincronizacion es muy facil .

tengo estos capitulos si quieres revisarlos

https://mega.nz/#!9OAzERrB!l1cDFbyXaU_qS_XOJCXI15deINAFpcfyvYmTN7EW6oU

https://mega.nz/#!xfwHDBAR!Ewp6qf5LyOYj4Gt_kSjAKfy-h1tvgO6qtwmb4zfT2IA
Gracias amigo xeca_efe_u por contestar.primero te felicito por el gran trabajo que estas realizando con muchas series en gran calida y en latino.o sea todo un lujo amigo.y en cuanto a la serie.la esperare con paciencia.saludos y muchas gracias por todo amigo.
Para dejar un comentario Registrate! o.. eres ya usuario? Accede!
Facebook Identi