libardomm
"I read a book one day and my whole life was changed. — Orhan Pamuk"

Game of Thrones|S07E04|WEBRip DD 51-1080p|[3 Gb]

Game of Thrones|S07x04|WEBRip DD 5.1-1080p|[3.08 Gb][Máxima calidad][Ingles]

Sinopsis:
En esta temporada Daenerys Targaryen  está finalmente navegando hacia Westeros con ejércitos, dragones y una nueva mano de la reina, Tyrion Lannister . Jon Snow  ha sido nombrado rey del norte después de derrotar a Ramsay Bolton  en la Batalla de los Bastardos y retorna a Winterfell al hogar de los Stark. En King’s Landing, Cersei Lannister  se ha apoderado del Trono de Hierro. Pero mientras las viejas alianzas se fracturan y otras nuevas emergen, un ejercito de hombres muertos marcha hacia La Muralla, amenazando con terminar el juego de tronos para siempre.

Datos Generales:
Temporada: 7
Numero de Episodios:4
Audio: Ingles
Fuente de audio/video: AMAZON WEBRip[La mejor calidad posible]
Subtítulos: Español [Fuente: Subdivx]

Datos Tecnicos:General
General
Unique ID                      : 172993053031744267960793150133831355564 (0x8225400695C89FF88D5090F054724CAC)
Complete name                  : E:DatosMegadownloaderGame.of.Thrones.S07E04.The.Queens.Justice.1080p.AMZN.WEBRip.DDP5.1.x264-GoT11[snahp.it]Game.of.Thrones.S07E03.The.Queens.Justice.1080p.AMZN.WEB-DL.DD+5.1.H.264-GoT_snahp.it.mkv
Format                         : Matroska
Format version                 : Version 4 / Version 2
Duration                       : 1 h 4 min
Overall bit rate mode          : Variable
Overall bit rate               : 9 421 kb/s
Encoded date                   : UTC 2017-07-31 01:11:44
Writing application            : mkvmerge v7.6.0 ('Garden of Dreams') 64bit built on Feb  8 2015 13:04:34
Writing library                : libebml v1.3.1 + libmatroska v1.4.2

Video
ID                             : 1
Format                         : AVC
Format/Info                    : Advanced Video Codec
Format profile                 : [email protected]
Format settings, CABAC         : Yes
Format settings, ReFrames      : 4 frames
Codec ID                       : V_MPEG4/ISO/AVC
Duration                       : 1 h 4 min
Bit rate mode                  : Variable
Bit rate                       : 8 778 kb/s
Maximum bit rate               : 15.0 Mb/s
Width                          : 1 920 pixels
Height                         : 1 080 pixels
Display aspect ratio           : 16:9
Frame rate mode                : Constant
Frame rate                     : 23.976 (24000/1001) FPS
Color space                    : YUV
Chroma subsampling             : 4:2:0
Bit depth                      : 8 bits
Scan type                      : Progressive
Bits/(Pixel*Frame)             : 0.177
Stream size                    : 3.95 GiB (93%)
Default                        : Yes
Forced                         : No
Color range                    : Limited
Color primaries                : BT.709
Transfer characteristics       : BT.709
Matrix coefficients            : BT.709

Audio
ID                             : 2
Format                         : E-AC-3
Format/Info                    : Enhanced Audio Coding 3
Format settings, Endianness    : Big
Codec ID                       : A_EAC3
Duration                       : 1 h 4 min
Bit rate mode                  : Constant
Bit rate                       : 640 kb/s
Channel(s)                     : 6 channels
Channel positions              : Front: L C R, Side: L R, LFE
Sampling rate                  : 48.0 kHz
Frame rate                     : 187.500 FPS (256 spf)
Compression mode               : Lossy
Delay relative to video        : 25 ms
Stream size                    : 295 MiB (7%)
Language                       : English
Default                        : Yes
Forced                         : No

Text
ID                             : 3
Format                         : UTF-8
Codec ID                       : S_TEXT/UTF8
Codec ID/Info                  : UTF-8 Plain Text
Duration                       : 1 h 4 min
Bit rate                       : 69 b/s
Count of elements              : 990
Stream size                    : 32.8 KiB (0%)
Language                       : English
Default                        : No
Forced                         : No

Menu
00:00:00.000                   : en:Stay Tuned
00:00:00.041                   : en:TV Rating
00:00:05.041                   : en:Previously On
00:01:32.041                   : en:Studio Logo
00:01:38.041                   : en:Opening Credits
00:03:25.041                   : en:Jon Snow arrives at Dragonstone; Dragonstone
00:09:22.041                   : en:The King meets the Queen; Dragonstone
00:19:53.041                   : en:Euron returns with his captives; King's Landing
00:24:45.041                   : en:The Queen's justice; King's Landing
00:29:31.041                   : en:The Iron Bank wants its gold back; King's Landing
00:33:52.041                   : en:Tyrion tries to help Jon; Dragonstone
00:39:37.041                   : en:Daenerys and Jon negotiate; Dragonstone
00:41:32.041                   : en:Sansa receives an unexpected visitor; Winterfell
00:47:00.041                   : en:Archmaester Ebrose examines Jorah; Oldtown
00:51:15.041                   : en:Daenerys and her advisers discuss strategy; Dragonstone
00:54:53.041                   : en:The Lannisters arrive; Highgarden
01:02:34.041                   : en:End Credits
01:03:53.041                   : en:Next On
01:04:23.041                   : en:Online Extra




Nota: Lamento la demora. En estos días he estado bastante ocupado.












peliculas - programas
50 Puntos Score: 10/10
Visitas: 738 Favoritos: 2
Ver los usuarios que votaron...
2 Comentarios Game of Thrones|S07E04|WEBRip DD 51-1080p|[3 Gb]
Soberbio tu aporte mi amigo... calidad excelente,
Para dejar un comentario Registrate! o.. eres ya usuario? Accede!
Facebook Identi