BryanTV
"#PrayForMexico :)"

[Estreno›Netflix] Message From the King-Solo Audio

Message From the King-Solo Audio Latino
Audios Extraidos de Netflix
Audio 2.0
Message From the King-BryanTV-track_2.0.ac3
Format                      : E-AC-3
Format/Info                 : Audio Coding 3
File size                   : 94.3 MiB
Duration                    : 1h 43mn
Overall bit rate mode       : Constant
Overall bit rate            : 128 Kbps
Audio
Format                      : E-AC-3
Format/Info                 : Audio Coding 3
Format settings, Endianness : Big
Duration                    : 1h 43mn
Bit rate mode               : Constant
Bit rate                    : 128 Kbps
Channel(s)                  : 2 channels
Channel positions           : Front: L R
Sampling rate               : 48.0 KHz
Frame rate                  : 187.500 fps (256 spf)
Compression mode            : Lossy
Stream size                 : 94.3 MiB (100%)

Audio 5.1
Message From the King-BryanTV-track_5.1.ac3
Format                      : E-AC-3
Format/Info                 : Audio Coding 3
File size                   : 141 MiB
Duration                    : 1h 43mn
Overall bit rate mode       : Constant
Overall bit rate            : 192 Kbps
Audio
Format                      : E-AC-3
Format/Info                 : Audio Coding 3
Format settings, Endianness : Big
Duration                    : 1h 43mn
Bit rate mode               : Constant
Bit rate                    : 192 Kbps
Channel(s)                  : 6 channels
Channel positions           : Front: L C R, Side: L R, LFE
Sampling rate               : 48.0 KHz
Frame rate                  : 187.500 fps (256 spf)
Compression mode            : Lossy
Stream size                 : 141 MiB (100%)









NO TIENE
descargar peliculas - descargar programas
70 Puntos Score: 10/10
Visitas: 1608 Favoritos: 0
Ver los usuarios que votaron...
19 Comentarios [Estreno›Netflix] Message From the King-Solo Audio
lo extrajiste tu o lo robaste
@PLAYREADY Son extraidos, de mi autoria con tan solo que veas q tambien subi el 2.0 basta en la red solo esta el 5.1
@BryanTV si por eso te lo decia, claro que siempre es mejor el 5.1 que el 2.0 yo tmb subo en CHD audios de netflix extraidos por mi por eso te lo preguntaba  
FllorTV - Administrador - hace más de 2 meses
@BryanTV Gracias por tu aporte  
@javicho270 Gracias x los +10
@FllorTV Gracias usted x valorar
Gracias por el aporte y que bueno seria mas infor acerca de la película pues no se de que va!!!
MAS INFO y si se pudiera capturas de antemano GRACIAS por el esfuerzo...
@melliso357 Si. Estoy de acuerdo si le falta sinopsis sobre esta pelicula.
@alejandrok Pero para que. Si solo son audios.
Capturas?? De que estas hablando. disculpa pero nesecitas lentes amigo xD
lee bien el titulo del post
@BryanTV yo también necesito lentes  
@diegonki porque tu! Si no has dicho nada incoherente como el user de 2 comentarios mas arriba
@BryanTV es que de tanto estar en la pc ya no veo las letras pequeñas    y no es broma  
lo pusiste an categoria de peliculas o me equivoco
 
yo esperaba la pelicula mejor busco en otro lado  
@diegonki oh ya entiendo. Pero por eso pongo los titulos los mas grandes que se puede  
@BryanTV buena onda, que tengas lindo día  
@diegonki Gracias. Lo mismo digo, que tengas un buen dia
[Estreno›Netflix] bahhh
Para dejar un comentario Registrate! o.. eres ya usuario? Accede!
Facebook Identi