Game of Thrones|S07E04|Sub 360p Filtrado 273Mb



Sinopsis:
En esta temporada Daenerys Targaryen  está finalmente navegando hacia Westeros con ejércitos, dragones y una nueva mano de la reina, Tyrion Lannister . Jon Snow  ha sido nombrado rey del norte después de derrotar a Ramsay Bolton  en la Batalla de los Bastardos y retorna a Winterfell al hogar de los Stark. En King’s Landing, Cersei Lannister  se ha apoderado del Trono de Hierro. Pero mientras las viejas alianzas se fracturan y otras nuevas emergen, un ejercito de hombres muertos marcha hacia La Muralla, amenazando con terminar el juego de tronos para siempre.


Datos:

General
Complete name                  : C:UsersChristianDownloadsGame of Thrones S07E04 AAC MP4GOT S07E04.mp4
Format                         : MPEG-4
Format profile                 : Base Media
Codec ID                       : isom (isom/iso2/avc1/mp41)
File size                      : 292 MiB
Duration                       : 52 min 6 s
Overall bit rate mode          : Constant
Overall bit rate               : 783 kb/s
Writing application            : Lavf57.56.101

Video
ID                             : 1
Format                         : AVC
Format/Info                    : Advanced Video Codec
Format profile                 : [email protected]
Format settings, CABAC         : No
Format settings, ReFrames      : 4 frames
Format settings, GOP           : M=1, N=15
Codec ID                       : avc1
Codec ID/Info                  : Advanced Video Coding
Duration                       : 52 min 6 s
Bit rate mode                  : Constant
Bit rate                       : 650 kb/s
Width                          : 640 pixels
Height                         : 360 pixels
Display aspect ratio           : 16:9
Frame rate mode                : Constant
Frame rate                     : 25.000 FPS
Color space                    : YUV
Chroma subsampling             : 4:2:0
Bit depth                      : 8 bits
Scan type                      : Progressive
Bits/(Pixel*Frame)             : 0.113
Stream size                    : 243 MiB (83%)
Language                       : English
Color range                    : Limited

Audio
ID                             : 2
Format                         : AAC
Format/Info                    : Advanced Audio Codec
Format profile                 : LC
Codec ID                       : 40
Duration                       : 52 min 6 s
Bit rate mode                  : Constant
Bit rate                       : 125 kb/s
Channel(s)                     : 2 channels
Channel positions              : Front: L R
Sampling rate                  : 48.0 kHz
Frame rate                     : 46.875 FPS (1024 spf)
Compression mode               : Lossy
Stream size                    : 46.8 MiB (16%)
Language                       : English
Default                        : Yes
Alternate group                : 1



Subtitulos:

Subtitulo de Game of Thrones S07E04




Link



sin JD
peliculas - programas
85 Puntos Score: 8.5/10
Visitas: 4287 Favoritos: 1
Ver los usuarios que votaron...
Más del Autor...
No se encontraron más posts
24 Comentarios Game of Thrones|S07E04|Sub 360p Filtrado 273Mb
Eres un crack lo ando buscando desde el martes jaja, felicitaciones
jajaja probres cuates los de HBO!
Cita Maniak: Mostrar
recien hoy liberaron el video, lo de antes solo fueron textos, saludos
los subtítulos porfa!
Cita Rickardo.: Mostrar
buscandolos,no aparecen por ningun lado. apenas los tenga, los subo!!
En realidad ayer liberaron el video
Cita JackStone: Mostrar
shhhhhh, dejame mentir tranquilo ajajjajaja  
Gracias monstruo y quedo al pendiente de los subt
Cita melliso357: Mostrar
a vos,todos estamos pendientes y buscando por todos lados. saludos
Cita romnuc: Mostrar
a vos porlos puntos!!!!!  
toma tus 10 °°°°°
 
agrego a jd y no me aparece en linea ????
Cita kors: Mostrar
ya verifique y sigue en linea
Cita jasinto2: Mostrar
GRACIAS!!!
vale la pena verla con esa calidad?
Cita pabloarroy: Mostrar
No vale la pena pero te van a spoiler por todo lado, ni modo
El mejor episodio de toda la p**a historia de la televisión   no tiene parangón, imposible superarlo, lastima que haya tenido que verlo en esta calidad, espero con ansias el domingo
te voy a extranar jaime
QUE GRAN CAPITULAZO POR DIOS LO RECORTE PARA VERLO MEJOR Y SI QUE ME LO GOZE CASI HASTA LLORO DE LA EMOCIÓN  
Para dejar un comentario Registrate! o.. eres ya usuario? Accede!
Facebook Identi