xeca_efe_u
"Solo Audio Latino 1080p y Subo a Mega"

ShadowHunters T2 Cap 1 a 18 Latino 1080p WebDL

ShadowHunters
Temporada 2
Capitulos 18 de 20
Audio Latino
WeB-DL 1080p


La segunda temporada de Shadowhunters está basada en a serie literaria juvenil de Cazadores de sombras, escrita por la autora estadounidense Cassandra Clare, adaptada principalmente por McG y Ed Decter. Fue anunciada el 14 de marzo de 2016 tras darse la noticia de que Freeform renovaría la serie, y posteriormente se reveló que esta contaría con un total de 20 episodios.1 Sin embargo, Ed Decter, quien fue el show runner del programa durante su primera temporada, se retiró del proyecto debido a diferencias creativas y su cargo fue ocupado en conjunto por Todd Slavkin y Darren Swimmer.2 La temporada estrenó el 2 de enero de 2017 a través de Freeform.3

Los actores Katherine McNamara, Dominic Sherwood, Alberto Rosende, Matthew Daddario, Emeraude Toubia, Harry Shum, Jr. e Isaiah Mustafa volvieron a formar parte del elenco principal interpretando sus respectivos personajes de la primera temporada. Otros actores que también retornaron son Maxim Roy, Alan Van Sprang y David Castro, además que se introdujeron nuevos actores como Alisha Wainwright y Nick Sagar













Tamaño:  1.62gb Aprox
Resolución: 1920x1080p WebDL
Formato: MKV
Duracion: 42:21
Codec: x264
Audio: Solo Español Latino
Subtitulos: No
Uploader : xeca_efe_up
Servidor: Mega

Contraseña : No



Video
ID                          : 1
Format                      : AVC
Format/Info                 : Advanced Video Codec
Format profile              : [email protected]
Format settings, CABAC      : Yes
Format settings, RefFrames  : 4 frames
Codec ID                    : V_MPEG4/ISO/AVC
Duration                    : 42 min 7 s
Bit rate                    : 5 076 kb/s
Width                       : 1 920 pixels
Height                      : 1 080 pixels
Display aspect ratio        : 16:9
Frame rate mode             : Constant
Frame rate                  : 23.976 (23976/1000) FPS
Color space                 : YUV
Chroma subsampling          : 4:2:0
Bit depth                   : 8 bits
Scan type                   : Progressive
Bits/(Pixel*Frame)          : 0.102
Stream size                 : 1.49 GiB (94%)
Language                    : English
Default                     : Yes
Forced                      : No
Color range                 : Limited
Color primaries             : BT.709
Transfer characteristics    : BT.709
Matrix coefficients         : BT.709

Audio
ID                          : 2
Format                      : MPEG Audio
Format version              : Version 1
Format profile              : Layer 3
Mode                        : Joint stereo
Mode extension              : MS Stereo
Codec ID                    : A_MPEG/L3
Codec ID/Hint               : MP3
Duration                    : 42 min 12 s
Bit rate mode               : Constant
Bit rate                    : 320 kb/s
Channel(s)                  : 2 channels
Sampling rate               : 48.0 kHz
Frame rate                  : 41.667 FPS (1152 SPF)
Compression mode            : Lossy
Stream size                 : 1.30 MiB (0%)
Title                       : Latino
Writing library             : LAME3.99r
Encoding settings           : -m j -V 4 -q 3 -lowpass 20.5
Language                    : Spanish
Default                     : Yes
Forced                      : No
Capitulos 1 a 10






Capitulos 11 a 18




Audios Latinos aparte si alguien los necesita , recuerden que estos audios tienen intro en ingles ......

descargar peliculas - descargar programas
20 Puntos Score: 10/10
Visitas: 493 Favoritos: 0
Ver los usuarios que votaron...
5 Comentarios ShadowHunters T2 Cap 1 a 18 Latino 1080p WebDL
Amigo y el audio latino de episodio 18?
@jp_k140 más tarde lo colocó terminé tarde anoche  
Hola @xeca_efe_u gracias por compartir, una consulta vas a subir los demas capitulos de prison break.
Cita house8353: Mostrar


Ni idea si han doblado los demas capitulos , no esta siquiera la serie puesta en foxplay .  
Para dejar un comentario Registrate! o.. eres ya usuario? Accede!
Facebook Identi