libardomm
"I read a book one day and my whole life was changed. — Orhan Pamuk"

Better Call Saul-Temporada 3|1080p x265 |AMC

Better Call Saul-Temporada 3|1080p x265
Audio original- Subtitulos en Español

Ambientada en 2002, seis años antes de los acontecimientos relatadas en Breaking Bad, Better Call Saul es un spin-off centrado en el personaje de James 'Jimmy' McGuill (Bob Odenkirk), antes de que asuma la identidad de Saul Goodman, un abogado corrupto con un humor políticamente incorrecto vinculado al mundo criminal que empieza a crear una importante red de contactos en los bajos mundos. La serie narra los acontecimientos que llevan a McGuill a convertirse en Saul antes de trabajar con Walter White (Bryan Cranston), más conocido como Heisenberg, el narcotraficante más temido de Nuevo México.

A McGuill le acompañan su hermano Chuck (Michael McKean), también abogado y máximo referente de éxito para Jimmy; Kim Wexler (Rhea Seehorn), una vieja amiga del protagonista; y Mike Ehrmantraut (Jonathan Banks), policía retirado que trabaja formalmente como investigador privado, pero que en realidad es una tapadera para su labor como el hombre que resuelve los problemas de McGuill, a menudo con métodos violentos.

Otros actores que participan en Better Call Saul son Patrick Fabian, como el abogado Howard Hamlin; Michael Mando, que interpreta al peligroso criminal Nacho Varga; Julie Ann Emery, que será la delincuente Betsy Kettleman; y Jeremy Shamos, en el papel de Craig Kettleman, delincuente y marido de Betsy.


Datos Generales:
Temporada: 3
Numero de Episodios: 10
Audio: Ingles
Fuente de audio/video: Bluray
Subtitulos: Español
Peso Aproximado: 3,81 Gb
Servidor: Mega

Datos Tecnicos:

Video
General
Unique ID                      : 235672603113240963240789763118012193383 (0xB14CE47071793CAC8798E37E93725A67)
Format                         : Matroska
Format version                 : Version 4 / Version 2
File size                      : 417 MiB
Duration                       : 53 min 2 s
Overall bit rate               : 1 098 kb/s
Encoded date                   : UTC 2015-11-13 09:31:40
Writing application            : mkvmerge v8.4.0 ('A better way to fly') 64bit
Writing library                : libebml v1.3.1 + libmatroska v1.4.2

Video
ID                             : 1
Format                         : HEVC
Format/Info                    : High Efficiency Video Coding
Format profile                 : Main [email protected]@Main
Codec ID                       : V_MPEGH/ISO/HEVC
Duration                       : 53 min 2 s
Bit rate                       : 910 kb/s
Width                          : 1 920 pixels
Height                         : 1 080 pixels
Display aspect ratio           : 16:9
Frame rate mode                : Constant
Frame rate                     : 23.976 (24000/1001) FPS
Color space                    : YUV
Chroma subsampling             : 4:2:0
Bit depth                      : 10 bits
Bits/(Pixel*Frame)             : 0.018
Stream size                    : 345 MiB (83%)
Writing library                : x265 1.8+38-fe65544b6c40:[Windows][GCC 4.8.2][64 bit] 10bit
Encoding settings              : wpp / ctu=64 / min-cu-size=8 / max-tu-size=32 / tu-intra-depth=1 / tu-inter-depth=1 / me=1 / subme=2 / merange=57 / no-rect / no-amp / max-merge=2 / temporal-mvp / no-early-skip / rdpenalty=0 / no-tskip / no-tskip-fast / strong-intra-smoothing / no-lossless / no-cu-lossless / no-constrained-intra / no-fast-intra / open-gop / no-temporal-layers / interlace=0 / keyint=250 / min-keyint=23 / scenecut=40 / rc-lookahead=20 / lookahead-slices=0 / bframes=4 / bframe-bias=0 / b-adapt=2 / ref=3 / limit-refs=0 / weightp / no-weightb / aq-mode=1 / qg-size=32 / aq-strength=0.30 / cbqpoffs=0 / crqpoffs=0 / rd=3 / psy-rd=0.50 / rdoq-level=2 / psy-rdoq=10.00 / signhide / deblock=-2:-2 / sao / no-sao-non-deblock / b-pyramid / cutree / rc=2 / pass / bitrate=909 / qcomp=0.80 / qpmin=0 / qpmax=51 / qpstep=4 / cplxblur=20.0 / qblur=0.5 / ipratio=1.10 / pbratio=1.10
Default                        : Yes
Forced                         : No

Audio
ID                             : 2
Format                         : AAC
Format/Info                    : Advanced Audio Codec
Format profile                 : HE-AAC / LC
Codec ID                       : A_AAC
Duration                       : 53 min 2 s
Bit rate                       : 187 kb/s
Channel(s)                     : 6 channels
Channel positions              : Front: L C R, Side: L R, LFE
Sampling rate                  : 48.0 kHz / 24.0 kHz
Frame rate                     : 23.438 FPS (1024 spf)
Compression mode               : Lossy
Delay relative to video        : 31 ms
Stream size                    : 70.9 MiB (17%)
Language                       : English
Default                        : Yes
Forced                         : No

Text #1
ID                             : 3
Format                         : UTF-8
Codec ID                       : S_TEXT/UTF8
Codec ID/Info                  : UTF-8 Plain Text
Duration                       : 49 min 9 s
Bit rate                       : 70 b/s
Count of elements              : 632
Stream size                    : 25.5 KiB (0%)
Language                       : English
Default                        : No
Forced                         : No

Text #2
ID                             : 4
Format                         : UTF-8
Codec ID                       : S_TEXT/UTF8
Codec ID/Info                  : UTF-8 Plain Text
Duration                       : 52 min 25 s
Bit rate                       : 74 b/s
Count of elements              : 737
Stream size                    : 28.6 KiB (0%)
Language                       : English
Default                        : No
Forced                         : No

Menu
00:00:00.000                   : en:00:00:00.000
00:06:17.210                   : en:00:06:17.210
00:23:38.500                   : en:00:23:38.500
00:30:35.584                   : en:00:30:35.584
00:39:22.777                   : en:00:39:22.777
00:45:31.938                   : en:00:45:31.938
00:52:20.346                   : en:00:52:20.346
















peliculas - programas
44 Puntos Score: 8.8/10
Visitas: 395 Favoritos: 3
Ver los usuarios que votaron...
2 Comentarios Better Call Saul-Temporada 3|1080p x265 |AMC
excelente aportazo! gracias Serie A+++
Para dejar un comentario Registrate! o.. eres ya usuario? Accede!
Facebook Identi