xeca_efe_u
"Solo Audio Latino 1080p y Subo a Mega"

ShadowHunters T2 Cap 1 a 17 Latino 1080p WebDL

ShadowHunters
Temporada 2
Capitulos 17 de 20
Audio Latino
WeB-DL 1080p


La segunda temporada de Shadowhunters está basada en a serie literaria juvenil de Cazadores de sombras, escrita por la autora estadounidense Cassandra Clare, adaptada principalmente por McG y Ed Decter. Fue anunciada el 14 de marzo de 2016 tras darse la noticia de que Freeform renovaría la serie, y posteriormente se reveló que esta contaría con un total de 20 episodios.1 Sin embargo, Ed Decter, quien fue el show runner del programa durante su primera temporada, se retiró del proyecto debido a diferencias creativas y su cargo fue ocupado en conjunto por Todd Slavkin y Darren Swimmer.2 La temporada estrenó el 2 de enero de 2017 a través de Freeform.3

Los actores Katherine McNamara, Dominic Sherwood, Alberto Rosende, Matthew Daddario, Emeraude Toubia, Harry Shum, Jr. e Isaiah Mustafa volvieron a formar parte del elenco principal interpretando sus respectivos personajes de la primera temporada. Otros actores que también retornaron son Maxim Roy, Alan Van Sprang y David Castro, además que se introdujeron nuevos actores como Alisha Wainwright y Nick Sagar

















Tamaño:  1.62gb Aprox
Resolución: 1920x1080p WebDL
Formato: MKV
Duracion: 42:21
Codec: x264
Audio: Solo Español Latino
Subtitulos: No
Uploader : xeca_efe_up
Servidor: Mega

Contraseña : No



Video
ID                          : 1
Format                      : AVC
Format/Info                 : Advanced Video Codec
Format profile              : [email protected]
Format settings, CABAC      : Yes
Format settings, RefFrames  : 4 frames
Codec ID                    : V_MPEG4/ISO/AVC
Duration                    : 41 min 50 s
Bit rate                    : 5 070 kb/s
Width                       : 1 920 pixels
Height                      : 1 080 pixels
Display aspect ratio        : 16:9
Frame rate mode             : Constant
Frame rate                  : 23.976 FPS
Color space                 : YUV
Chroma subsampling          : 4:2:0
Bit depth                   : 8 bits
Scan type                   : Progressive
Bits/(Pixel*Frame)          : 0.102
Stream size                 : 1.48 GiB (96%)
Language                    : English
Default                     : Yes
Forced                      : No
Color range                 : Limited
Color primaries             : BT.709
Transfer characteristics    : BT.709
Matrix coefficients         : BT.709

Audio
ID                          : 2
Format                      : AAC
Format/Info                 : Advanced Audio Codec
Format profile              : LC
Codec ID                    : A_AAC
Duration                    : 41 min 51 s
Bit rate                    : 212 kb/s
Channel(s)                  : 2 channels
Channel positions           : Front: L R
Sampling rate               : 48.0 kHz
Frame rate                  : 46.875 FPS (1024 SPF)
Compression mode            : Lossy
Stream size                 : 63.4 MiB (4%)
Default                     : Yes
Forced                      : No
[/left]Capitulos 1 a 10






Capitulos 11 a 17




Audios Latinos aparte si alguien los necesita , recuerden que estos audios tienen intro en ingles ......

descargar peliculas - descargar programas
30 Puntos Score: 7.5/10
Visitas: 459 Favoritos: 1
Ver los usuarios que votaron...
7 Comentarios ShadowHunters T2 Cap 1 a 17 Latino 1080p WebDL
Esperando el audio latino del cap 17 gracias.  
Cita xeca_efe_u: Mostrar

Gracias.  
Que buenos posts que haces @xeca_efe_u, muchas gracias.
 
genial aporte... no tendrias la primera temporada en esta escelente calidad?
Cita brianmixers: Mostrar

Buscala en mi perfil  
Muchas gracias por compartir saludos
Para dejar un comentario Registrate! o.. eres ya usuario? Accede!
Facebook Identi