libardomm
"I read a book one day and my whole life was changed. — Orhan Pamuk"

Game of Thrones|S07E02|WEBRip DD 51-1080p|[3,5 Gb]

Game of Thrones|S07x02|WEBRip DD 5.1-1080p|[3,5 Gb][Máxima calidad][Ingles/Latino]

Sinopsis:
En esta temporada Daenerys Targaryen  está finalmente navegando hacia Westeros con ejércitos, dragones y una nueva mano de la reina, Tyrion Lannister . Jon Snow  ha sido nombrado rey del norte después de derrotar a Ramsay Bolton  en la Batalla de los Bastardos y retorna a Winterfell al hogar de los Stark. En King’s Landing, Cersei Lannister  se ha apoderado del Trono de Hierro. Pero mientras las viejas alianzas se fracturan y otras nuevas emergen, un ejercito de hombres muertos marcha hacia La Muralla, amenazando con terminar el juego de tronos para siempre.

Datos Generales:
Temporada: 7
Numero de Episodios: 2
Audio: Ingles/Latino
Fuente de audio/video: AMAZON WEBRip[La mejor calidad posible]
Subtítulos: Español [Fuente: Subdivx]

Datos Tecnicos:General
Unique ID                      : 183684446150471898361858884065130060226 (0x8A30566771CAF89CA84B3016559619C2)
Complete name                  : H:\7x02\game.of.thrones.s07e02.1080p Amazon.mkv
Format                         : Matroska
Format version                 : Version 4 / Version 2
File size                      : 3.58 GiB
Duration                       : 58 min 33 s
Overall bit rate mode          : Variable
Overall bit rate               : 8 748 kb/s
Encoded date                   : UTC 2017-07-24 01:01:05
Writing application            : mkvmerge v14.0.0 ('Flow') 64bit
Writing library                : libebml v1.3.4 + libmatroska v1.4.5
Attachments                    : Playlist.png

Video
ID                             : 1
Format                         : AVC
Format/Info                    : Advanced Video Codec
Format profile                 : [email protected]
Format settings, CABAC         : Yes
Format settings, ReFrames      : 4 frames
Codec ID                       : V_MPEG4/ISO/AVC
Duration                       : 58 min 33 s
Bit rate mode                  : Variable
Bit rate                       : 7 916 kb/s
Maximum bit rate               : 15.0 Mb/s
Width                          : 1 920 pixels
Height                         : 1 080 pixels
Display aspect ratio           : 16:9
Frame rate mode                : Constant
Frame rate                     : 23.976 (24000/1001) FPS
Color space                    : YUV
Chroma subsampling             : 4:2:0
Bit depth                      : 8 bits
Scan type                      : Progressive
Bits/(Pixel*Frame)             : 0.159
Stream size                    : 3.24 GiB (90%)
Default                        : Yes
Forced                         : No
Color range                    : Limited
Color primaries                : BT.709
Transfer characteristics       : BT.709
Matrix coefficients            : BT.709

Audio #1
ID                             : 2
Format                         : AC-3
Format/Info                    : Audio Coding 3
Mode extension                 : CM (complete main)
Format settings, Endianness    : Big
Codec ID                       : A_AC3
Duration                       : 57 min 56 s
Bit rate mode                  : Constant
Bit rate                       : 192 kb/s
Channel(s)                     : 2 channels
Channel positions              : Front: L R
Sampling rate                  : 48.0 kHz
Frame rate                     : 31.250 FPS (1536 spf)
Bit depth                      : 16 bits
Compression mode               : Lossy
Delay relative to video        : 4 ms
Stream size                    : 79.6 MiB (2%)
Title                          : Latino
Language                       : Spanish
Default                        : Yes
Forced                         : No

Audio #2
ID                             : 3
Format                         : E-AC-3
Format/Info                    : Enhanced Audio Coding 3
Format settings, Endianness    : Big
Codec ID                       : A_EAC3
Duration                       : 58 min 33 s
Bit rate mode                  : Constant
Bit rate                       : 640 kb/s
Channel(s)                     : 6 channels
Channel positions              : Front: L C R, Side: L R, LFE
Sampling rate                  : 48.0 kHz
Frame rate                     : 187.500 FPS (256 spf)
Compression mode               : Lossy
Delay relative to video        : 11 ms
Stream size                    : 268 MiB (7%)
Language                       : English
Default                        : No
Forced                         : No

Text #1
ID                             : 4
Format                         : ASS
Codec ID                       : S_TEXT/ASS
Codec ID/Info                  : Advanced Sub Station Alpha
Duration                       : 52 min 45 s
Bit rate                       : 95 b/s
Count of elements              : 719
Compression mode               : Lossless
Stream size                    : 36.8 KiB (0%)
Title                          : Latino
Language                       : Spanish
Default                        : No
Forced                         : No

Text #2
ID                             : 5
Format                         : UTF-8
Codec ID                       : S_TEXT/UTF8
Codec ID/Info                  : UTF-8 Plain Text
Duration                       : 58 min 15 s
Bit rate                       : 58 b/s
Count of elements              : 795
Stream size                    : 24.8 KiB (0%)
Language                       : English
Default                        : No
Forced                         : No

















descargar peliculas - descargar programas
45 Puntos Score: 9/10
Visitas: 1533 Favoritos: 0
Ver los usuarios que votaron...
8 Comentarios Game of Thrones|S07E02|WEBRip DD 51-1080p|[3,5 Gb]
no me agrega los links, me los podrías mandar por mp? muchas gracias de antemano
@yopintemiv @gusty18 Los links funcionan perfectamente en jdownloader. Si no les carga prueben otra vez  sin ABP o utilicen otro explorador.
Un saludo.
Descargando, gracias.... es el 2 cierto??
@ferboli No. Esta parte se cortó.
amigo disculpa como descomprimo los archivos?, no pude con rar ni 7zip, o tengo que cambiar la extension?
@robert12 usa la ultima version de 7zip. Si te tira error es porque alguna parte no se bajo bien.
Para dejar un comentario Registrate! o.. eres ya usuario? Accede!
Facebook Identi