xeca_efe_u
"Solo Audio Latino 1080p y Subo a Mega"

Game Of Thrones T7 2/7 Audio Latino 1080p WeB-DL

Game Of Thrones
Temporada 7
Capitulos 2 de 7
Audio Español Latino
1080p Web-DL



La séptima temporada de la fantasía dramática serie de televisión Juego de tronos se estrenó en HBO el 16 de julio de 2017, y está programada para concluir seis semanas después, el 27 de agosto de 2017.  A diferencia de temporadas anteriores que consistía Diez episodios cada uno, la séptima temporada consta de sólo siete.  Al igual que la temporada anterior , que consiste en gran parte del contenido original que se encuentra en George RR Martin 's Canción de Hielo y Fuego serie, y también se adapta el material Martin reveló a showrunners sobre las próximas novelas de la serie.

HBO ordenó la séptima temporada el 21 de abril de 2016, tres días antes del estreno de la serie de la sexta temporada , y comenzó a filmar el 31 de agosto de 2016. La temporada fue filmada principalmente en Irlanda del Norte , España , y de Islandia .

Game of Thrones cuenta con un reparto grande , incluyendo Peter Dinklage , Nikolaj Coster-Waldau , Lena Headey , Emilia Clarke y Kit Harington . La temporada presenta a varios nuevos miembros del reparto, incluyendo Jim Broadbent y Tom Hopper .















Tamaño:  1.60gb Promedio
Resolución: 1920x1080p WebDL
Formato: MKV
Duracion: 59:00 Promedio
Codec: x264
Audio: Solo Español Latino

Subtitulos: No
Uploader : xeca_efe_up
Servidor: Mega

Contraseña : No



Audios propios ....

Video
ID                          : 1
Format                      : AVC
Format/Info                 : Advanced Video Codec
Format profile              : [email protected]
Format settings, CABAC      : Yes
Format settings, RefFrames  : 4 frames
Codec ID                    : V_MPEG4/ISO/AVC
Duration                    : 58 min 0 s
Bit rate mode               : Variable
Bit rate                    : 3 536 kb/s
Maximum bit rate            : 4 510 kb/s
Width                       : 1 920 pixels
Height                      : 1 080 pixels
Display aspect ratio        : 16:9
Frame rate mode             : Constant
Frame rate                  : 23.976 (24000/1001) FPS
Color space                 : YUV
Chroma subsampling          : 4:2:0
Bit depth                   : 8 bits
Scan type                   : Progressive
Bits/(Pixel*Frame)          : 0.071
Stream size                 : 1.43 GiB (94%)
Default                     : Yes
Forced                      : No

Audio
ID                          : 2
Format                      : AAC
Format/Info                 : Advanced Audio Codec
Format profile              : LC
Codec ID                    : A_AAC
Duration                    : 58 min 0 s
Bit rate                    : 242 kb/s
Channel(s)                  : 2 channels
Channel positions           : Front: L R
Sampling rate               : 48.0 kHz
Frame rate                  : 46.875 FPS (1024 SPF)
Compression mode            : Lossy
Stream size                 : 101 MiB (6%)
Title                       : Latino xeca_efe_up
Language                    : Spanish
Default                     : Yes
Forced                      : No




Para Descargar de MEGA  sin restricciones usen este metodo que explico en mi post

http://www.identi.li/index.php?topic=477132
descargar peliculas - descargar programas
75 Puntos Score: 8.3/10
Visitas: 2191 Favoritos: 1
Ver los usuarios que votaron...
7 Comentarios Game Of Thrones T7 2/7 Audio Latino 1080p WeB-DL
Gracias por pasar   ya que está lleno de post , la semana pasada ni quise postear
@xeca_efe_u excelente aporte, sigue así  
gracias! dejo puntos
Excelente calidad! Muchas gracias!!
Para dejar un comentario Registrate! o.. eres ya usuario? Accede!
Facebook Identi