Hect65
"11 aportes más y nos vemos el próximo año !!! :)"

La novia de Chucky (1998) 1080p Lat Ven By-Hect65

La novia de Chucky (1997) 1080p Dual Latino

Venezolano By Hect65


¡¡Próximamente, se acerca mi último post de este año!!











¡¡¡ Tienes mi apoyo amigo @pericos !!!.






Esperamos tu pronto regreso,


bueno, por lo menos yo así lo deseo.










Info. de Pelí :


Video
ID                          : 1
Format                      : AVC
Format/Info                 : Advanced Video Codec
Format profile              : [email protected]
Format settings, CABAC      : Yes
Format settings, ReFrames   : 4 frames
Codec ID                    : V_MPEG4/ISO/AVC
Duration                    : 1h 28mn
Bit rate                    : 2 678 Kbps
Width                       : 1 920 pixels
Height                      : 1 040 pixels
Format                      : Matroska
Format version              : Version 4 / Version 2
File size                   : 2.69 GiB
Duration                    : 1h 28mn
Overall bit rate            : 4 338 Kbps
Movie name                  : Bride Of Chucky [1998] [1080p
Dual [Doblajes :Latino y Redoblado] -  Inglés
Encoded date                : UTC 2017-07-22 07:42:07
Display aspect ratio        : 1.85:1
Frame rate mode             : Constant
Frame rate                  : 23.976 fps
Color space                 : YUV
Chroma subsampling          : 4:2:0
Bit depth                   : 8 bits
Scan type                   : Progressive
Bits/(Pixel*Frame)          : 0.056
Stream size                 : 1.61 GiB (60%)
Title                       : Bride of Chucky  (1997)
Writing library             : x264 core
Default                     : Yes
Forced                      : No


Audio #1
ID                          : 2
Format                      : AC-3
Format/Info                 : Audio Coding 3
Mode extension              : CM (complete main)
Format settings, Endianness : Big
Codec ID                    : A_AC3
Duration                    : 1h 28mn
Bit rate mode               : Constant
Bit rate                    : 512 Kbps
Channel(s)                  : 6 channels
Channel positions           : Front: L C R, Side: L R, LFE
Sampling rate               : 48.0 KHz
Compression mode            : Lossy
Stream size                 : 325 MiB (12%)
Title                       : Audio : Latino Original [Venezolano]
Language                    : Latin
Default                     : Yes
Forced                      : Yes


Audio #2
ID                          : 3
Format                      : AC-3
Format/Info                 : Audio Coding 3
Mode extension              : CM (complete main)
Format settings, Endianness : Big
Codec ID                    : A_AC3
Duration                    : 1h 28mn
Bit rate mode               : Constant
Bit rate                    : 640 Kbps
Channel(s)                  : 6 channels
Channel positions           : Front: L C R, Side: L R, LFE
Sampling rate               : 48.0 KHz
Compression mode            : Lossy
Delay relative to video     : 24ms
Stream size                 : 407 MiB (15%)
Title                       : Audio : Latino Redoblaje [Mexican]
Language                    : Latin
Default                     : No
Forced                      : No


Audio #3
ID                          : 4
Format                      : AC-3
Format/Info                 : Audio Coding 3
Mode extension              : CM (complete main)
Format settings, Endianness : Big
Codec ID                    : A_AC3
Duration                    : 1h 28mn
Bit rate mode               : Constant
Bit rate                    : 512 Kbps
Channel(s)                  : 6 channels
Channel positions           : Front: L C R, Side: L R, LFE
Sampling rate               : 48.0 KHz
Compression mode            : Lossy
Stream size                 : 325 MiB (12%)
Title                       : Inglés
Language                    : English
Default                     : No
Forced                      : No


Text
ID                          : 5
Format                      : UTF-8
Codec ID                    : S_TEXT/UTF8
Codec ID/Info               : UTF-8 Plain Text
Title                       : Subt. Español
Language                    : Spanish
Default                     : No
Forced                      : No







Info. de filmaffinity






















Vía : ''Zippyshare''







Descarguen con ''mipony o Jdownloader''








Sin Password

















IDENTI.LI




Saludos y nos veremos pronto.





Su amigo @Hect65
descargar peliculas - descargar programas
180 Puntos Score: 10/10
Visitas: 816 Favoritos: 2
Ver los usuarios que votaron...
29 Comentarios La novia de Chucky (1998) 1080p Lat Ven By-Hect65
Amigo @amistad si gustas puedes venir a ver este post  , saludos compa  
excelente calidad, gracias por compartir amigo, saludos  
Brother, esta pelicula esta delirante....   gracias por compartirla, y claro que me la llevo.  
Un abrazo!
Muy bueno tu aporte mi amigazo muchas gracias me la llevo
@chitio2010 Muchas gracias amigo,saludos compa  
@India1414 Muchas gracias amiga,saludos y bendiciones  
@Guzanero   felices fiestas amigazo   ,saludos y un abrazo  
@Duliori_28  amigazo,un gusto que me sigas apoyando,un saludote y un abrazo
@cesarbbcc con gusto amigo,un abrazo  
@Leopulga     gracias por los puntines amigo, saludos
muchas gracias amigo....tremendo aporte.....la buscaba desde hace mucho..solo faltaria la de este cuerpo no es mio con el doblaje neutro
@amistad Que tal amigo,que bueno que te gusto   ,si este, ese de ''este cuerpo no es mio con el doblaje neutro'' lo voy a buscar,pero no va a ser fácil jeje

Muchas gracias amigo por pasarte  y por valorar ,un saludo cordial
@Hect65 ya tengo el audio neutro hace poco lo compartieron............solo hace falta un raw 1080p.ya que la mejor calidad que anda por ahi es 720p si lo encuentras te lo comparto........yo lo haria pero actualmente ya no dispongo de tiempo para sincronizar  
@amistad Ahh eso estaría bien amigo,déjame buscar la pelí en 1080p y te aviso para que me pases el audio,saludos  
Muchas gracias amigo    saludos  
gracias amigo por el aporte, excelente calidad, un saludo  
@cesarbbcc muchas gracias amigo,pues ya reaparecio nuestro amigo @pericos   ,en buena hora no jeje,saludos amigos  
@biaoyuen18 muchas gracias amigo,un gran saludos  
@FllorTV muchas gracias amiga,saludos  
@LADY_BLUE muchas gracias amiga,saludos  
Buen aporte.  
@MLPF Muchas gracias amigo,saludos
Para dejar un comentario Registrate! o.. eres ya usuario? Accede!
Facebook Identi