Rugrats, aventuras en pañales (peliculas 3/3) DVDR

Rugrats, aventuras en pañales (peliculas 3/3) DVDR[/color][/b]






Aventuras en Pañales:

SINOPSIS:
Aventuras en pañales o “Rugrats” es una serie de televisión de dibujos animados producida por el canal infantil estadounidense Nickelodeon. Debutó oficialmente en 1991 y en los siguientes años se convirtió en uno de los programas insignes en la historia del canal. Esta serie trata de unos bebés que hacen travesuras, la antagonista principal es Angélica Pickles, prima hermana de Tommy, el protagonista principal, que no para de hacer rabiar a los pequeños.
Esta serie televisiva anunció su último episodio en 2004 para dar paso a los nuevos Rugrats Crecidos!. Fue el primero de tres nicktoons en ser lo más largos en la historia, duró 13 años al aire y tuvo 9 temporadas, 3 peliculas y varios especiales.

INFORMACIÓN TÉCNICA


Nombre: Rugrats Las Películas
Pais: Estados Unidos
Genero: Animacion
Tipo: DVDrip
Calidad: Excelente
Peso: DVDrip 1.30GB aproximadamente
Idiomas: Ambos: Ingles - Español Latino
Subtítulos: Ambos: Ingles - Español Latino
Duracion: 80 minutos
Servidor: Mega


Format                                   : Matroska
Format version                           : Version 2

Overall bit rate                         : 1 914 Kbps
Writing application                      : HandBrake 0.9.9


Video
ID                                       : 1
Format                                   : AVC
Format/Info                              : Advanced Video Codec
Format profile                           : [email protected]
Format settings, CABAC                   : Yes
Format settings, ReFrames                : 4 frames
Codec ID                                 : V_MPEG4/ISO/AVC
Bit rate                                 : 1 000 Kbps
Width                                    : 716 pixels
Height                                   : 480 pixels
Display aspect ratio                     : 16:9
Original display aspect ratio            : 16:9
Frame rate mode                          : Variable
Color space                              : YUV
Chroma subsampling                       : 4:2:0
Bit depth                                : 8 bits
Scan type                                : Progressive

Language                                 : English
Default                                  : Yes
Forced                                   : No
Color primaries                          : BT.601 NTSC
Transfer characteristics                 : BT.709
Matrix coefficients                      : BT.601

Audio #1
ID                                       : 2
Format                                   : AC-3
Format/Info                              : Audio Coding 3
Mode extension                           : CM (complete main)
Format settings, Endianness              : Big
Codec ID                                 : A_AC3
Duration                                 : 1h 18mn
Bit rate mode                            : Constant
Bit rate                                 : 448 Kbps
Channel(s)                               : 6 channels
Channel positions                        : Front: L C R, Side: L R, LFE
Sampling rate                            : 48.0 KHz
Bit depth                                : 16 bits
Compression mode                         : Lossy
Stream size                              : 252 MiB (23%)
Language                                 : Spanish
Default                                  : Yes
Forced                                   : No

Audio #2
ID                                       : 3
Format                                   : AC-3
Format/Info                              : Audio Coding 3
Mode extension                           : CM (complete main)
Format settings, Endianness              : Big
Codec ID                                 : A_AC3
Duration                                 : 1h 18mn
Bit rate mode                            : Constant
Bit rate                                 : 448 Kbps
Channel(s)                               : 6 channels
Channel positions                        : Front: L C R, Side: L R, LFE
Sampling rate                            : 48.0 KHz
Bit depth                                : 16 bits
Compression mode                         : Lossy
Stream size                              : 252 MiB (23%)
Language                                 : English
Default                                  : No
Forced                                   : No




Nota: Renombrar la extensión del archivo al descomprimir por .mkv















Sin pass
descargar peliculas - descargar programas
51 Puntos Score: 6.4/10
Visitas: 664 Favoritos: 5
Ver los usuarios que votaron...
3 Comentarios Rugrats, aventuras en pañales (peliculas 3/3) DVDR
Gracias para recordar la niñez  
Para dejar un comentario Registrate! o.. eres ya usuario? Accede!
Facebook Identi