xeca_efe_u
"Solo Audio Latino 1080p y Subo a Mega con 160mb de felicidad ....."

ShadowHunters T2 Cap 1 a 16 Latino 1080p WebDL

ShadowHunters
Temporada 2
Capitulos 16 de 20
Audio Latino
WeB-DL 1080p


La segunda temporada de Shadowhunters está basada en a serie literaria juvenil de Cazadores de sombras, escrita por la autora estadounidense Cassandra Clare, adaptada principalmente por McG y Ed Decter. Fue anunciada el 14 de marzo de 2016 tras darse la noticia de que Freeform renovaría la serie, y posteriormente se reveló que esta contaría con un total de 20 episodios.1 Sin embargo, Ed Decter, quien fue el show runner del programa durante su primera temporada, se retiró del proyecto debido a diferencias creativas y su cargo fue ocupado en conjunto por Todd Slavkin y Darren Swimmer.2 La temporada estrenó el 2 de enero de 2017 a través de Freeform.3

Los actores Katherine McNamara, Dominic Sherwood, Alberto Rosende, Matthew Daddario, Emeraude Toubia, Harry Shum, Jr. e Isaiah Mustafa volvieron a formar parte del elenco principal interpretando sus respectivos personajes de la primera temporada. Otros actores que también retornaron son Maxim Roy, Alan Van Sprang y David Castro, además que se introdujeron nuevos actores como Alisha Wainwright y Nick Sagar














Tamaño:  1.62gb Aprox
Resolución: 1920x1080p WebDL
Formato: MKV
Duracion: 42:21
Codec: x264
Audio: Solo Español Latino
Subtitulos: No
Uploader : xeca_efe_up
Servidor: Mega

Contraseña : No



Video
ID                          : 1
Format                      : AVC
Format/Info                 : Advanced Video Codec
Format profile              : High@L4
Format settings, CABAC      : Yes
Format settings, RefFrames  : 4 frames
Codec ID                    : V_MPEG4/ISO/AVC
Duration                    : 42 min 3 s
Bit rate                    : 5 185 kb/s
Width                       : 1 920 pixels
Height                      : 1 080 pixels
Display aspect ratio        : 16:9
Frame rate mode             : Constant
Frame rate                  : 23.976 (23976/1000) FPS
Color space                 : YUV
Chroma subsampling          : 4:2:0
Bit depth                   : 8 bits
Scan type                   : Progressive
Bits/(Pixel*Frame)          : 0.104
Stream size                 : 1.52 GiB (95%)
Language                    : English
Default                     : Yes
Forced                      : No
Color range                 : Limited
Color primaries             : BT.709
Transfer characteristics    : BT.709
Matrix coefficients         : BT.709

Audio
ID                          : 2
Format                      : AAC
Format/Info                 : Advanced Audio Codec
Format profile              : LC
Codec ID                    : A_AAC
Duration                    : 42 min 3 s
Bit rate                    : 253 kb/s
Channel(s)                  : 2 channels
Channel positions           : Front: L R
Sampling rate               : 48.0 kHz
Frame rate                  : 46.875 FPS (1024 SPF)
Compression mode            : Lossy
Delay relative to video     : 200 ms
Stream size                 : 76.0 MiB (5%)
Title                       : Latino
Language                    : Spanish
Default                     : Yes
Forced                      : No
[/left]

Capitulos 1 a 10






Capitulos 11 a 16




Audios Latinos aparte si alguien los necesita , recuerden que estos audios tienen intro en ingles ......

peliculas - programas
40 Puntos Score: 8/10
Visitas: 526 Favoritos: 0
Ver los usuarios que votaron...
5 Comentarios ShadowHunters T2 Cap 1 a 16 Latino 1080p WebDL
hola amigo, de pura casualidad la tendrás en resolución 720p?
Gracias por los audios, pero solo estan desde el 10 al 16, podrias subir los primeros 10 audios?  
@gerrydarck en esa resolución los publique yo busca los en mi perfil
@Sorek503 ya eche un vistazo a tu post pero solo hay 5 capitulos disponibles de la 2da temporada amigo, el link de copiapop esta caido y hay solo el 15 y 16 pero faltan los otros, cres poder suvirlos en 720p, te agradesco bro
Para dejar un comentario Registrate! o.. eres ya usuario? Accede!
Facebook Identi