Hect65
"4 aportes más, y nada más!!!"
Oops.. Este post tiene los enlaces eliminados!

Identi revisa las denuncias de los usuarios en busca de enlaces eliminados que no dejan descargar los archivos, este mensaje te informa que este post que estas viendo tiene los enlaces eliminados.

Usa el Buscador

Por favor, te recomendamos que uses el buscador para encontrar más alternativas.

BBC ''Vida''2009 (1080p x264) Dual By @Hect65

  • Categoría: Reciclaje
  • Publicado hace más de 4 meses
BBC ''Vida''2009 (1080p x264) MP4

Dual By @Hect65


a petición de @Wallace_98








Nota importante :





Este aporte es solo para

los que están interesados en

los documentales,si a alguien no

le es de su agrado,

por favor, pase de largo.





Este aporte lo hago solo por que me lo pidió

un gran amigo que por razones

personales, ya no estará con

nosotros en IDENTI,





@Wallace_98 se que verás

este aporte compa,desde aquí te mando

un gran saludo de compas ,que estés bien amigo.  





Agradecimientos a @Wallace_98  pues este aporte lo debió

haber posteado él,pues prácticamente

él fue quien sincronizo la serie.























También  quiero decirles que mi amigazo


''@pericos ''


no se le ha visto por aquí, no se si lo banearon,

pero, si fue así, pues que mal,podría ser un

buen moderador.


Si alguien sabe donde esta,favor de decírme

donde contactar con amigo pericos,


pues ya se le extraña por acá.










¡¡¡ Tienes mi apoyo amigo pericos !!!.











Esperamos tu pronto regreso,


bueno, por lo menos yo así lo deseo.









Seguimos con el aporte  :








La serie cuenta con 10 vídeos y cada vídeo contiene



las siguientes características :





Video



ID                          : 1
Format                      : AVC
Format/Info                 : Advanced Video Codec
Format profile              : [email protected]
Format settings, CABAC      : Yes
Format settings, ReFrames   : 4 frames
Codec ID                    : avc1
Codec ID/Info               : Advanced Video Coding
Duration                    : 58mn 51s
Bit rate                    : 4 234 Kbps
Width                       : 1 920 pixels
Height                      : 1 080 pixels
Format                      : MPEG-4
Format profile              : Base Media / Version 2
Codec ID                    : mp4
Duration                    : 1 hours aprox.
Overall bit rate mode       : Variable
Overall bit rate            : 4 563 Kbps
Encoded date                : UTC 2017-07-09 08:53:08
Tagged date                 : UTC 2017-07-09 08:53:08
Display aspect ratio        : 16:9
Frame rate mode             : Constant
Frame rate                  : 25.000 fps
Color space                 : YUV
Chroma subsampling          : 4:2:0
Bit depth                   : 8 bits
Scan type                   : Progressive
Bits/(Pixel*Frame)          : 0.082
Stream size                 : 1.74 GiB (93%)
Writing library             : x264 core



Audio #1
ID                          : 2
Format                      : AAC
Format/Info                 : Advanced Audio Codec
Format profile              : LC
Codec ID                    : 40
Duration                    : 58mn 53s
Bit rate mode               : Variable
Bit rate                    : 160 Kbps
Channel(s)                  : 2 channels
Channel positions           : Front: L R
Sampling rate               : 48.0 KHz
Compression mode            : Lossy
Stream size                 : 67.5 MiB (4%)
Title                       : Stereo / Stereo
Language                    : Spanish



Audio #2
ID                          : 3
Format                      : AAC
Format/Info                 : Advanced Audio Codec
Format profile              : LC
Codec ID                    : 40
Duration                    : 58mn 52s
Bit rate mode               : Variable
Bit rate                    : 160 Kbps
Channel(s)                  : 2 channels
Channel positions           : Front: L R
Sampling rate               : 48.0 KHz
Compression mode            : Lossy
Stream size                 : 67.5 MiB (4%)
Title                       : Stereo / Stereo
Language                    : English






Yo solo pase esta serie a codec x264.





Info. de ''filmaffinity'' :










Episodios :




1. Challenges of Life.

2. Reptiles and Amphibians.

3. Mammals.

4. Fish.

5. Birds.

6. Insects.

7. Hunters and Hunted.

8. Creatures of the Deep.

9. Plants.

10. Primates.




Peso total de la serie : 19.1 gbs.






Recuerden que en Zippyshare los links no duran mucho tiempo.










Vía : ''Zippyshare''










1. Challenges of Life :









2. Reptiles and Amphibians :








3. Mammals :







4. Fish :








5. Birds :









6. Insects :







7. Hunters and Hunted :








8. Creatures of the Deep :








9. Plants :







10. Primates :














Sin Password  













IDENTI.LI










Saludos y nos veremos pronto











Su amigo @Hect65
descargar peliculas - descargar programas
105 Puntos Score: 9.5/10
Visitas: 626 Favoritos: 2
Ver los usuarios que votaron...
24 Comentarios BBC ''Vida''2009 (1080p x264) Dual By @Hect65
hermoso aporte amigo,excelente,   gracias por compartir,un abrazo
@cesarbbcc muchas gracias amigo,un abrazo
@cesarbbcc me uno a la busqueda de pericos  
buen aporte gracias, la introduccion fue como si hubiera leido la introduccion de un libro me gusto  
@cesarbbcc  así es amigo, aún no se sabe que paso con nuestro amigo @pericos ,esperemos su regreso pronto  
@alezxis7   muchas gracias  
a caray porque pesa tanto? son avi? o es por lo dual?
@bakteria75  no amigo,cuenta cuantos videos son,y te darás cuenta que la cálidad es lo que pesa
Saludos  
@mar333 y @eltiopi por ordenes de mi compa, me pidió que los nombrará en este post,saludos y recuerden que este post es de @Wallace_98 y que fue un detalle de él para ustedes ,saludos  
@bakteria75  si vez bien en información ahí te dice que son Codec H264,  Formato mp4 ,saludos  
Hermano me alegro que hayas podido cumplir el deseo de @Wallace_98 y felicitaciones por postearlo.
+10  
@Guzanero muchas gracias amigo,pues si,aunque lo mio son las pelí jaja,pero ya cumplí con lo de wallace
@mar333 gracias amigo,pero lo es más para wallace,muchas gracias por valorar,saludos
@GH0ST   muchas gracias
Cita Hect65: Mostrar
Caray cuánta camaradería, en hora buena esa amistad que se tienen. Y gracias por el post.
Es verdad hace días que no sabemos del amigo pericos , espero que ande bien... Muchas gracias por compartir mi amigazo un abrazo
@biaoyuen18 muchas gracias amigo,saludos  

@eltiopi JAJA,si a si es amigo,el Wallace y yo somos bien compas   .gracias por pasar  

@Duliori_28 Amigazoo,un gusto que pases por acá   ,un saludos y un abrazo,feliz finde semana
@javier37 muchas gracias amigo por valorar,saludos
Muchas gracias
Muchísimas gracias.  
Para dejar un comentario Registrate! o.. eres ya usuario? Accede!
Facebook Identi