hugohagg
"Comparto contenido en 1080p-720p-DVD5 alojados en ZS"

Going in Style (2017) 720P - YIFY [ZS-UB]

Going in Style (2017) 720P - YIFY [ZS-UB]





Going in Style (2017)
Genre: Comedy | Crime
Directed By: Zach Braff
Cast: Joey King, Morgan Freeman, Peter Serafinowicz
MPAA Rate: PG-13
Country: USA
Original Language: English

General
Format                                   : MPEG-4
File size                                : 713 MiB
Duration                                 : 1h 36mn
Overall bit rate                         : 1 034 Kbps

Video
ID                                       : 1
Format                                   : AVC
Format/Info                              : Advanced Video Codec
Format profile                           : High@L4.1
Format settings, CABAC                   : Yes
Format settings, ReFrames                : 4 frames
Codec ID                                 : avc1
Codec ID/Info                            : Advanced Video Coding
Duration                                 : 1h 36mn
Bit rate                                 : 900 Kbps
Width                                    : 1 280 pixels
Height                                   : 534 pixels
Display aspect ratio                     : 2.40:1
Original display aspect ratio            : 2.40:1
Frame rate mode                          : Constant
Frame rate                               : 23.976 fps
Color space                              : YUV
Chroma subsampling                       : 4:2:0
Bit depth                                : 8 bits
Scan type                                : Progressive
Bits/(Pixel*Frame)                       : 0.055
Stream size                              : 621 MiB (87%)
Writing library                          : x264 core
Audio
ID                                       : 2
Format                                   : AAC
Format/Info                              : Advanced Audio Codec
Format profile                           : LC
Codec ID                                 : 40
Duration                                 : 1h 36mn
Bit rate mode                            : Constant
Bit rate                                 : 127 Kbps
Channel(s)                               : 2 channels
Channel positions                        : Front: L R
Sampling rate                            : 48.0 KHz
Compression mode                         : Lossy
Stream size                              : 87.8 MiB (12%)


Sinopsis
Joe, Willie y Al son tres ancianos amigos. Un día, Joe presencia el asalto a un banco a manos de una pandilla armada. Al encontrarse en serios aprietos económicos, e inspirado por su vivencia, planea junto a sus dos amigos el robo de un banco para poder solventar sus inconvenientes monetarios.




VERSION 1080p LATiNO
http://www.identi.li/index.php?topic=476183
1 LINK



Partes intercambiables de 200MB





Subtitulos
http://www.subdivx.com/X6XNTA3ODQ1X-going-in-style-2017.html

identiHU
peliculas - programas
15 Puntos Score: 7.5/10
Visitas: 1486 Favoritos: 0
Ver los usuarios que votaron...
2 Comentarios Going in Style (2017) 720P - YIFY [ZS-UB]
Se ve interesante, muchas gracias,
Gracias por el aporte
Para dejar un comentario Registrate! o.. eres ya usuario? Accede!
Facebook Identi