The Princess Bride 1987 [Latino/BRrip/1080p Lite]



TÍTULO: The Princess Bride
AÑO: 1987
PAÍS: Estados Unidos
DIRECTOR: Rob Reiner
GUIÓN: William Goldman
MÚSICA: Mark Knopfler
FOTOGRAFÍA: Adrian Biddle
PRODUCTORA: MGM / UA / Act III Communications
PREMIOS: 1987: Nominada al Oscar: Mejor canción original
1987: Festival de Toronto: Mejor película (Premio del Público)
GÉNERO: Aventuras. Romance. Comedia. Fantástico | Fantasía medieval. Comedia romántica. Capa y espada. Magia. Piratas
REPARTO: Robin Wright Penn, Cary Elwes, Mandy Patinkin, Chris Sarandon, Wallace Shawn, Billy Crystal, Carol Kane, Peter Falk, Peter Cook, Fred Savage, Mel Smith, Christopher Guest, André the Giant, Mel Smith


Sinopsis

Después de buscar fortuna durante cinco años, Westley retorna a su tierra para casarse con su amada Buttercup, a la que había jurado amor eterno. Sin embargo, para recuperarla habrá de enfrentarse a Vizzini y sus esbirros. Una vez derrotados éstos, tendrá que superar el peor de los obstáculos: el príncipe Humperdinck pretende desposar a la desdichada Buttercup, pese a que ella no lo ama, ya que sigue enamorada de Westley.



      Formato : MP4
      Idioma : Español Latino (Es el segundo doblaje grabado en Los Angeles)
      Tamaño : 1.52 GiB
      Duration : 1 h 38 min
      Overall bit rate mode : Variable
      Overall bit rate : 2 217 kb/s


   Video #1
      ID : 1
      Format : AVC
      Format/Info : Advanced Video Codec
      Format profile : [email protected]
      Format settings, CABAC : Yes
      Format settings, ReFrames : 4 frames
      Codec ID : avc1
      Codec ID/Info : Advanced Video Coding
      Duration : 1 h 38 min
      Bit rate : 1 826 kb/s
      Width : 1 920 pixels
      Height : 1 040 pixels
      Display aspect ratio : 1.85:1
      Frame rate mode : Variable
      Frame rate : 23.976 (24000/1001) FPS
      Minimum frame rate : 23.000 FPS
      Maximum frame rate : 23.981 FPS
      Color space : YUV
      Chroma subsampling : 4:2:0
      Bit depth : 8 bits
      Scan type : Progressive
      Bits/(Pixel*Frame) : 0.038
      Stream size : 1.25 GiB (82%)

   Audio #2
      ID : 2
      Format : AAC
      Format/Info : Advanced Audio Codec
      Format profile : LC
      Codec ID : 40
      Duration : 1 h 38 min
      Source duration : 1 h 38 min
      Bit rate mode : Variable
      Bit rate : 384 kb/s
      Channel(s) : 2 channels
      Channel positions : Front: L R
      Sampling rate : 44.1 kHz
      Frame rate : 43.066 FPS (1024 spf)
      Compression mode : Lossy
      Stream size : 269 MiB (17%)
      Source stream size : 269 MiB (17%)
      Title : Stereo



Capturas









Links Intercambiables


UPTOBOX




MEGA





Nota : Es el segundo doblaje grabado en Los Angeles. Mas info en el link de abajo. El audio fue Capturado de señal satelital Directv y sincronizado por mi.

http://es.doblaje.wikia.com/wiki/The_Princess_Bride

descargar peliculas - descargar programas
84 Puntos Score: 7.6/10
Visitas: 1522 Favoritos: 2
Ver los usuarios que votaron...
9 Comentarios The Princess Bride 1987 [Latino/BRrip/1080p Lite]
gracias por tu esfuerzo se ve buena
@kriilin666 Muchas gracias por compartir y por tu esfuerzo, se ve buena para verla.  
FllorTV - Administrador - hace más de 4 meses
Todo un clasico, muchas gracias por compartirla.
muchas gracias man
se agradece

bajada
Muy buen aporte es difícil de encontrar  
Me encantaba esta pelicula cuando era chico. Muchas gracias, excelente aporte!
Pelicula bien rankeada...  Gracias, krilin666.  Un buen aporte y con buen sistema de descarga. Saludos
Para dejar un comentario Registrate! o.. eres ya usuario? Accede!
Facebook Identi