libardomm
"I read a book one day and my whole life was changed. — Orhan Pamuk"

Game of Thrones|S07E01|WEBRip DD 51-1080p|[3,5 Gb]

Game of Thrones|S07x01|WEBRip DD 5.1-1080p|[3,5 Gb][Máxima calidad]

Sinopsis:
En esta temporada Daenerys Targaryen  está finalmente navegando hacia Westeros con ejércitos, dragones y una nueva mano de la reina, Tyrion Lannister . Jon Snow  ha sido nombrado rey del norte después de derrotar a Ramsay Bolton  en la Batalla de los Bastardos y retorna a Winterfell al hogar de los Stark. En King’s Landing, Cersei Lannister  se ha apoderado del Trono de Hierro. Pero mientras las viejas alianzas se fracturan y otras nuevas emergen, un ejercito de hombres muertos marcha hacia La Muralla, amenazando con terminar el juego de tronos para siempre.

Datos Generales:
Temporada: 7
Numero de Episodios: 1
Audio: Ingles
Fuente de audio/video: AMAZON WEBRip[La mejor calidad posible]
Subtítulos: Español [Fuente: Subdivx]

Datos Tecnicos:General
Unique ID                      : 189339335212895112438117351753810262239 (0x8E716DF5EB799F2892E1808BE9B938DF)
Complete name                  : C:UsersUsuarioDownloadsGame of Thrones S07E01 Dragonstone REPACK 1080p AMZN WEBRip DDP5 1 x264-GoT[rartv]1Game.of.Thrones.S07E01.Dragonstone.REPACK.1080p.AMZN.WEBRip.DDP5.1.x264-GoT_snahp.it.mkv
Format                         : Matroska
Format version                 : Version 4 / Version 2
File size                      : 3.51 GiB
Duration                       : 1 h 1 min
Overall bit rate mode          : Variable
Overall bit rate               : 8 166 kb/s
Encoded date                   : UTC 2017-07-17 02:38:44
Writing application            : mkvmerge v9.3.1 ('Mask Machine') 64bit
Writing library                : libebml v1.3.4 + libmatroska v1.4.5

Video
ID                             : 1
Format                         : AVC
Format/Info                    : Advanced Video Codec
Format profile                 : [email protected]
Format settings, CABAC         : Yes
Format settings, ReFrames      : 4 frames
Codec ID                       : V_MPEG4/ISO/AVC
Duration                       : 1 h 1 min
Bit rate mode                  : Variable
Bit rate                       : 7 524 kb/s
Maximum bit rate               : 15.0 Mb/s
Width                          : 1 920 pixels
Height                         : 1 080 pixels
Display aspect ratio           : 16:9
Frame rate mode                : Constant
Frame rate                     : 23.976 (24000/1001) FPS
Color space                    : YUV
Chroma subsampling             : 4:2:0
Bit depth                      : 8 bits
Scan type                      : Progressive
Bits/(Pixel*Frame)             : 0.151
Stream size                    : 3.23 GiB (92%)
Default                        : Yes
Forced                         : No
Color range                    : Limited
Color primaries                : BT.709
Transfer characteristics       : BT.709
Matrix coefficients            : BT.709

Audio
ID                             : 2
Format                         : E-AC-3
Format/Info                    : Enhanced Audio Coding 3
Format settings, Endianness    : Big
Codec ID                       : A_EAC3
Duration                       : 1 h 1 min
Bit rate mode                  : Constant
Bit rate                       : 640 kb/s
Channel(s)                     : 6 channels
Channel positions              : Front: L C R, Side: L R, LFE
Sampling rate                  : 48.0 kHz
Frame rate                     : 187.500 FPS (256 spf)
Compression mode               : Lossy
Delay relative to video        : 23 ms
Stream size                    : 281 MiB (8%)
Language                       : English
Default                        : Yes
Forced                         : No

Text
ID                             : 3
Format                         : UTF-8
Codec ID                       : S_TEXT/UTF8
Codec ID/Info                  : UTF-8 Plain Text
Duration                       : 1 h 1 min
Bit rate                       : 55 b/s
Count of elements              : 758
Stream size                    : 24.9 KiB (0%)
Language                       : English
Default                        : No
Forced                         : No

Menu
00:00:00.000                   : en:TV Rating
00:00:02.327                   : en:Previously On
00:02:28.327                   : en:Studio Logo
00:02:33.327                   : en:Walder Frey holds a feast for his family; The Twins
00:06:26.327                   : en:Opening Credits
00:08:13.327                   : en:Bran and Meera arrive at the Wall; The Wall
00:11:40.327                   : en:Jon prepares his men for the coming Winter; Winterfell
00:16:40.327                   : en:Jon receives a message from King's Landing; Winterfell
00:19:30.327                   : en:Jaime tells Cersei they need allies; King's Landing
00:25:08.327                   : en:Euron makes Cersei an offer; King's Landing
00:29:06.327                   : en:Sam talks with Archmaester Marwyn about the White Walkers; Oldtown
00:35:59.327                   : en:Littlefinger asks Sansa if she is happy; Winterfell
00:38:07.327                   : en:Arya runs into a group of soldiers; The Riverlands
00:42:16.327                   : en:The Brotherhood Without Banners travel north; The North
00:51:31.327                   : en:Sam discovers something in a book; Oldtown
00:54:10.327                   : en:Daenerys comes home; Dragonstone
00:59:46.327                   : en:End Credits
01:01:04.327                   : en:Next On
01:01:24.327                   : en:Online Extra
















peliculas - programas
60 Puntos Score: 8.6/10
Visitas: 1394 Favoritos: 3
Ver los usuarios que votaron...
8 Comentarios Game of Thrones|S07E01|WEBRip DD 51-1080p|[3,5 Gb]
Gracias, seria posible subirla a otro servidor, saludos.
@morelos Lo que pasa es que en otros servidores los links no duran mucho y encima tambien tienen limitaciones.
Quiza a partir del próximo aporte considare poner un mirror.
Gracias amigo  
Muchas gracias x el capitulo man te van puntitos ^^ probare que tal va el servidor al que lo subiste, otra alternativa podría ser google drive  
muchas gracias  
Muchas gracias.
Para dejar un comentario Registrate! o.. eres ya usuario? Accede!
Facebook Identi