jerseyzv
"offline"

Mine (2017) Solo Audio LATiNO extraído del Bluray





Audio extraído del bluray por mi, originalmente el audio español latino en el bluray esta en formato DTS, se extrajo el audio original en formato DTS y se convirtió a formato AC3, en la descarga se incluye los 2 formatos, además se incluye los subtitulos en formato SUP.





Info: DTS

General
Format: DTS
Format/Info: Digital Theater Systems
File size: 586 MiB
Duration: 1 h 46 min
Overall bit rate mode: Constant
Overall bit rate: 768 kb/s

Audio
Format: DTS
Format/Info: Digital Theater Systems
Mode: 16
Format settings, Endianness: Big
Duration: 1 h 46 min
Bit rate mode: Constant
Bit rate: 768 kb/s
Channel(s): 6 channels
Channel positions: Front: L C R, Side: L R, LFE
Sampling rate: 48.0 kHz
Frame rate: 93.750 FPS (512 spf)
Bit depth: 24 bits
Compression mode: Lossy
Stream size: 586 MiB



Info: AC3

General
Format: AC-3
Format/Info: Audio Coding 3
File size: 489 MiB
Duration: 1 h 46 min
Overall bit rate mode: Constant
Overall bit rate: 640 kb/s

Audio
Format: AC-3
Format/Info: Audio Coding 3
Mode extension: CM (complete main)
Format settings, Endianness: Big
Duration: 1 h 46 min
Bit rate mode: Constant
Bit rate: 640 kb/s
Channel(s): 6 channels
Channel positions: Front: L C R, Side: L R, LFE
Sampling rate: 48.0 kHz
Frame rate: 31.250 FPS (1536 spf)
Bit depth: 16 bits
Compression mode: Lossy
Stream size: 489 MiB (100%)





Pass: jerseyzv.identi.li






NO TE OLVIDES COMENTAR Y SEGUIRME!
descargar peliculas - descargar programas
20 Puntos Score: 6.7/10
Visitas: 2080 Favoritos: 1
Ver los usuarios que votaron...
4 Comentarios Mine (2017) Solo Audio LATiNO extraído del Bluray
Muchas Gracias... google drive lo maximooooo
@Rasta_  @sebacorp  @David31979
Gracias por pasar    
Para dejar un comentario Registrate! o.. eres ya usuario? Accede!
Facebook Identi