Me Pido La Ventana - Andres Lopez (Stand Up)







General
Format                         : AVI
Format/Info                    : Audio Video Interleave
File size                      : 1,097,652 KB (1,123,995,593 bytes)
Overall bit rate               : 882 kb/s
IsTruncated                    : Yes

Video
ID                             : 0
Format                         : MPEG-4 Visual
Format profile                 : Advanced [email protected]
Format settings, BVOP          : 2
Format settings, QPel          : No
Format settings, GMC           : No warppoints
Format settings, Matrix        : Default (H.263)
Muxing mode                    : Packed bitstream
Codec ID                       : XVID
Codec ID/Hint                  : XviD
Duration                       : 1 h 56 min
Bit rate                       : 744 kb/s
Width                          : 640 pixels
Height                         : 480 pixels
Display aspect ratio           : 4:3
Frame rate                     : 25.000 FPS
Color space                    : YUV
Chroma subsampling             : 4:2:0
Bit depth                      : 8 bits
Scan type                      : Progressive
Compression mode               : Lossy
Bits/(Pixel*Frame)             : 0.097
Stream size                    : 623 MiB (84%)
Writing library                : XviD 1.1.2 (UTC 2006-11-01)

Audio
ID                             : 1
Format                         : MPEG Audio
Format version                 : Version 1
Format profile                 : Layer 3
Codec ID                       : 55
Codec ID/Hint                  : MP3
Duration                       : 1 h 56 min
Bit rate mode                  : Constant
Bit rate                       : 128 kb/s
Channel(s)                     : 2 channels
Sampling rate                  : 44.1 kHz
Compression mode               : Lossy
Delay relative to video        : 26 ms
Stream size                    : 107 MiB (15%)
Alignment                      : Split accross interleaves
Interleave, duration           : 40  ms (1.00 video frame)
Title                          : Audio Stream
Writing library                : LAME3.92

















shocknykko
peliculas - programas
30 Puntos Score: 7.5/10
Visitas: 793 Favoritos: 1
Ver los usuarios que votaron...
6 Comentarios Me Pido La Ventana - Andres Lopez (Stand Up)
Hola, gracias por compartir  
@ricardo.ag  el jdownloader me pide cuenta como hago?
@pipomac1 Abre una cuenta en el host y la agregas en el gestor de cuentas
+10 gracias me sirvió la información
Gracias amigo  
Para dejar un comentario Registrate! o.. eres ya usuario? Accede!
Facebook Identi