Hect65
"¡¡¡Próximamente!!!"

Trilogia : Super Agente ''K - 9'' HD - by Hect65


Trilogia : Super Agente K - 9 HD

''K -9'' 720p y 1080p


''Trial -Dual'' - by Hect65








Bueno amigos,hoy les traigo la saga completa

de Super Agente K - 9 ''K - Nine'',

bueno,dicen que ya salio otra pelí,

pero esta saga es para mi,

la saga completa.


Todo el trabajo de captura de audio

de la primer pelí, de sincronizado de audios y

subtitulos y todo el proceso que se llevo un sin

fin de tiempo para traerles hoy esta saga,


fue hecho por mi propia cuenta,para que se den

una idea de cuanto tarde

en reunir esta gradiosa saga ,tuve que esperar


2 años,si  así es,por que de poco en poco  fui

obteniendo los audios y teniendo en cuenta que


hace dos años ni sabia de que era la

sincronía de audios.


Bueno, al fin pude completar esta grandiosa

colección del perro ''Jerry Lee'' para traérselas

hoy, espero que la disfruten,y pues solo

responderé a quienes si valoren este valioso

 aporte,pues por lo que se antes,

ni en toda la red se encontraba en buena calida,
tanto de vídeo como de audio latino.




Comenzamos con la primer pelí de esta saga :




Super Agente ''K - 9'' 1080p Dual - by Hect65























Nota: el audio latino de esta pelí es una captura propia,

 

pues el audio que se encuentra en la web no me convenció

para añadirselo a esta pelí.


y la sincro.  de audio a la pelí  : 18 horas aprox.



Subtitulos en Es.Latino tuve que modificar muchas palabras,

pues estaba al español España y tenía algunas con lenguaje

que no se escucha del todo bien, ''se

le conoce como palabras obscenas''.



Info.de pelí :




Video

ID                          : 1
Format                      : AVC
Format/Info                 : Advanced Video Codec
Format profile              : [email protected]
Format settings, CABAC      : Yes
Format settings, ReFrames   : 4 frames
Codec ID                    : V_MPEG4/ISO/AVC
Duration                    : 1h 41mn
Nominal bit rate            : 2 500 Kbps
Width                       : 1 920 pixels
Height                      : 1 040 pixels
Format                      : Matroska
Format version              : Version 4 / Version 2
File size                   : 2.29 GiB
Duration                    : 1h 41mn
Overall bit rate            : 3 239 Kbps
Movie name                  : K - Nine (1989) 1080p .x264 Dual
Display aspect ratio        : 1.85:1
Frame rate mode             : Constant
Frame rate                  : 23.976 fps
Color space                 : YUV
Chroma subsampling          : 4:2:0
Bit depth                   : 8 bits
Scan type                   : Progressive
Bits/(Pixel*Frame)          : 0.052
Title                       : K - Nine (1989)
Writing library             : x264 core
Default                     : Yes
Forced                      : No



Audio #1
ID                          : 2
Format                      : AC-3
Format/Info                 : Audio Coding 3
Mode extension              : CM (complete main)
Format settings, Endianness : Big
Codec ID                    : A_AC3
Duration                    : 1h 41mn
Bit rate mode               : Constant
Bit rate                    : 512 Kbps
Channel(s)                  : 2 channels
Channel positions           : Front: L R
Sampling rate               : 48.0 KHz
Compression mode            : Lossy
Stream size                 : 371 MiB (16%)
Title                       : Audio : Latino
Language                    : Latin
Default                     : Yes
Forced                      : Yes



Audio #2
ID                          : 3
Format                      : AAC
Format/Info                 : Advanced Audio Codec
Format profile              : LC
Codec ID                    : A_AAC
Duration                    : 1h 41mn
Channel(s)                  : 2 channels
Channel positions           : Front: L R
Sampling rate               : 48.0 KHz
Compression mode            : Lossy
Title                       : Audio : Inglés
Language                    : English
Default                     : No
Forced                      : No



Text #1
ID                          : 4
Format                      : UTF-8
Codec ID                    : S_TEXT/UTF8
Codec ID/Info               : UTF-8 Plain Text
Title                       : Subt. Latino
Language                    : Latin
Default                     : No
Forced                      : No



Text #2
ID                          : 5
Format                      : UTF-8
Codec ID                    : S_TEXT/UTF8
Codec ID/Info               : UTF-8 Plain Text
Title                       : Subt. English
Language                    : English
Default                     : No
Forced                      : No









Info. de filmaffinity :










































Descarguen con MegaDownloader




[/links]
[/i]




Descarguen con ''mipony o Jdownloader''







Para los que no puedan descargar desde Mega :



''Alternative Cloud Mirror Links''



Descarguen Con ''Zippyshare''












Sin Password  



Superagente ''K-911'' [K - 911]

(1999) 1080p HD Trial Audio















Info. de pelí :


Format                      : Matroska
Format version              : Version 4 / Version 2
File size                   : 1.96 GiB
Duration                    : 1h 27mn
Overall bit rate            : 3 224 Kbps
Movie name                  : Superagente K-911 [K - 911] (1999) 1080p HD Movie
Encoded date                : UTC 2016-08-06
DURATION                    : 01:20:49


Video
ID                          : 1
Format                      : AVC
Format/Info                 : Advanced Video Codec
Format profile              : [email protected]
Format settings, CABAC      : No
Format settings, ReFrames   : 1 frame
Format settings, GOP        : M=1, N=25
Codec ID                    : V_MPEG4/ISO/AVC
Duration                    : 1h 27mn
Bit rate                    : 1 879 Kbps
Width                       : 1 920 pixels
Height                      : 1 080 pixels
Display aspect ratio        : 16:9
Frame rate mode             : Constant
Frame rate                  : 25.000 fps
Color space                 : YUV
Chroma subsampling          : 4:2:0
Bit depth                   : 8 bits
Scan type                   : Progressive
Bits/(Pixel*Frame)          : 0.036
Stream size                 : 1.15 GiB (58%)
Title                       : Superagente K-911 [K - 911] (1999) 1080p HD Dual Audio
Default                     : Yes
Forced                      : No



Audio #1
ID                          : 2
Format                      : AC-3
Format/Info                 : Audio Coding 3
Mode extension              : CM (complete main)
Format settings, Endianness : Big
Codec ID                    : A_AC3
Duration                    : 1h 27mn
Bit rate mode               : Constant
Bit rate                    : 512 Kbps
Channel(s)                  : 6 channels
Channel positions           : Front: L C R, Side: L R, LFE
Sampling rate               : 48.0 KHz
Compression mode            : Lossy
Stream size                 : 319 MiB (16%)
Title                       : Latino AC3
Language                    : Latin
Default                     : Yes
Forced                      : No



Audio #2
ID                          : 3
Format                      : AC-3
Format/Info                 : Audio Coding 3
Mode extension              : CM (complete main)
Format settings, Endianness : Big
Codec ID                    : A_AC3
Duration                    : 1h 27mn
Bit rate mode               : Constant
Bit rate                    : 512 Kbps
Channel(s)                  : 6 channels
Channel positions           : Front: L C R, Side: L R, LFE
Sampling rate               : 48.0 KHz
Compression mode            : Lossy
Stream size                 : 319 MiB (16%)
Title                       : Inglés AC3
Language                    : English
Default                     : No
Forced                      : No


Audio #3
ID                          : 4
Format                      : AC-3
Format/Info                 : Audio Coding 3
Mode extension              : CM (complete main)
Format settings, Endianness : Big
Codec ID                    : A_AC3
Duration                    : 1h 27mn
Bit rate mode               : Constant
Bit rate                    : 256 Kbps
Channel(s)                  : 6 channels
Channel positions           : Front: L C R, Side: L R, LFE
Sampling rate               : 48.0 KHz
Compression mode            : Lossy
Delay relative to video     : 23ms
Stream size                 : 160 MiB (8%)
Title                       : Russian AC3
Language                    : Russian
Default                     : No
Forced                      : No


Text #1
ID                          : 5
Format                      : UTF-8
Codec ID                    : S_TEXT/UTF8
Codec ID/Info               : UTF-8 Plain Text
Title                       : Sub.Latino
Language                    : Latin
Default                     : No
Forced                      : No


Text #2
ID                          : 6
Format                      : UTF-8
Codec ID                    : S_TEXT/UTF8
Codec ID/Info               : UTF-8 Plain Text
Title                       : Sub.Inglés
Language                    : English
Default                     : No
Forced                      : No




Info. de filmaffinity :





Se ve que es buena esta pelí,pues desde mayo la han subido a youtube

















































Descarguen con MegaDownloader




[/links]
[/i]



Descarguen con ''mipony o Jdownloader''







''Alternative Cloud Mirror Links''



Descarguen Con ''Zippyshare''









Sin Password  




Superagente ''K-9'' I.P.

[K-9 ; P I ] (2002) 720p Trial

Audio
























Info. de pelí :



Format                      : Matroska
Format version              : Version 4 / Version 2
File size                   : 1.95 GiB
Duration                    : 1h 34mn
Overall bit rate            : 2 936 Kbps
Movie name                  : Superagente K-9 I.P. [ K-9 ; P.I. ] (2002) 720p HD Movie
Encoded date                : UTC 2016-08-10 18:28:01

DURATION                    : 01:31:20


Video



ID                          : 1
Format                      : AVC
Format/Info                 : Advanced Video Codec
Format profile              : [email protected]
Format settings, CABAC      : Yes
Format settings, ReFrames   : 1 frame
Format settings, GOP        : M=1, N=60
Codec ID                    : V_MPEG4/ISO/AVC
Duration                    : 1h 34mn
Width                       : 1 280 pixels
Height                      : 694 pixels
Display aspect ratio        : 1.85:1
Frame rate mode             : Constant
Frame rate                  : 23.976 fps
Color space                 : YUV
Chroma subsampling          : 4:2:0
Bit depth                   : 8 bits
Scan type                   : Progressive
Title                       : Superagente K-9 I.P. [ K-9 ; P.I. ] (2002) 720p HD
Default                     : Yes
Forced                      : No



Audio #1


ID                          : 2
Format                      : AC-3
Format/Info                 : Audio Coding 3
Mode extension              : CM (complete main)
Format settings, Endianness : Big
Codec ID                    : A_AC3
Duration                    : 1h 34mn
Bit rate mode               : Constant
Bit rate                    : 512 Kbps
Channel(s)                  : 6 channels
Channel positions           : Front: L C R, Side: L R, LFE
Sampling rate               : 48.0 KHz
Compression mode            : Lossy
Stream size                 : 348 MiB (17%)
Title                       : Latino AC3
Language                    : Latin
Default                     : Yes
Forced                      : No



Audio #2


ID                          : 3
Format                      : AAC
Format/Info                 : Advanced Audio Codec
Format profile              : LC
Codec ID                    : A_AAC
Duration                    : 1h 34mn
Channel(s)                  : 2 channels
Channel positions           : Front: L R
Sampling rate               : 44.1 KHz
Compression mode            : Lossy
Title                       : Inglés AAC
Language                    : English
Default                     : No
Forced                      : No



Audio #3


ID                          : 4
Format                      : AC-3
Format/Info                 : Audio Coding 3
Mode extension              : CM (complete main)
Format settings, Endianness : Big
Codec ID                    : A_AC3
Duration                    : 1h 34mn
Bit rate mode               : Constant
Bit rate                    : 512 Kbps
Channel(s)                  : 6 channels
Channel positions           : Front: L C R, Side: L R, LFE
Sampling rate               : 48.0 KHz
Compression mode            : Lossy
Stream size                 : 348 MiB (17%)
Title                       : Inglés AC3 (Sonido Alto)
Language                    : English
Default                     : No
Forced                      : No



Audio #4


ID                          : 5
Format                      : AC-3
Format/Info                 : Audio Coding 3
Mode extension              : CM (complete main)
Format settings, Endianness : Big
Codec ID                    : A_AC3
Duration                    : 1h 34mn
Bit rate mode               : Constant
Bit rate                    : 512 Kbps
Channel(s)                  : 6 channels
Channel positions           : Front: L C R, Side: L R, LFE
Sampling rate               : 48.0 KHz
Compression mode            : Lossy
Stream size                 : 348 MiB (17%)
Title                       : Russian
Language                    : Russian
Default                     : No
Forced                      : No


Text


ID                          : 6
Format                      : UTF-8
Codec ID                    : S_TEXT/UTF8
Codec ID/Info               : UTF-8 Plain Text
Title                       : Sub.Inglés
Language                    : English
Default                     : No
Forced                      : No





Info. de filmaffinity :
















































Descarguen con ''mipony o Jdownloader''







Zippyshare :



Sin password  
Aporte Para La Comunidad IDENTI.LI

''Sincronización'' y ''Edición'' de audios  por su


amigo ''Hect65''.







Ya saben,espero sea de su interés.



Saludos.  
peliculas - programas
200 Puntos Score: 8.3/10
Visitas: 1537 Favoritos: 4
Ver los usuarios que votaron...
53 Comentarios Trilogia : Super Agente ''K - 9'' HD - by Hect65
Muchas gracias
@pericos Gracias amigo  
Que buen trabajo amigo gracias  
@Hect65  Uyyyy que pena que IDENTI ya no te dejara postear más cosas en este post   ,pero buen y grandioso te salio este gran trabajo de esta saga difícilmente de conseguir, dejo puntos más adelante,no tengo pero cuentas conmigo al igual que @Guzanero verdad amigo nuestro apoyo no tiene condiciones de ningún tipo verdad

 
@Hect65 Es broma compadre no te me vayas a enojar,saludos  
@Angelkaido  y dale con @Wallace_98 sigues molestando por lo que le dije  a @Angelkaido  sobre @Guzanero que mi hermano casí se nos muere por ver cosas   .

@Wallace_98 si no se porque no me dejo poner más cosas en este post IDENTI,pero bueno,yo ya cumpli con  lo mio,si IDENTI no me permite colocar más cosas pues ya no depende de mi .

Saludos  
@Hect65 dale compa, pues lo bueno es que tu ya hiciste tu trabajo, ,y date un descanso,pues todo eso costo un montón,de hecho estas pelís ya las subieron a youtube   ,pero  halla no tienen ,o más bien no están completas como acá,sin subtitulos, ni tiene doble audio como aquí    
que trabajo de perros te dio.jaja.muchas gracias por tu excelente trabajo.mañana ira mis puntitos para ti
extraordinario trabajo,muchas gracias por compartir apreciado amigo,saludos  
Barbaro!! Ahora siiii... la trilogía está completa.  
Esto amerita una celebración.



Para vos hermano y un +10  

@Wallace_98 a rumbearla!!  
Gracias, muy buen trabajo  
@mariocue @yugiooohh  Muchas gracias,saludos  
Cita Hect65: Mostrar
@Guzanero   @Hect65  efectivamente,y ya nuestro amigo @Guzanero  ya le entro también a la fiesta,



Solo nos falta @Angelkaido  
@Wallace_98 te pasas     @Guzanero no sabia que te gustara el chupe amigazoo   @Angelkaido  
@pipe_84  Muchas gracias amigo,tuve que reciclar el otro post, pues ya no me dejo colocar más cosas,pero muchas gracias amigo por los puntos,saludos cordiales  
Gracias man por compartir. Excelente actor, uno de mis favoritos. Tendrás de casualidad El Director (The Principal)?
Van 5 por el gran esfuerzo.
Saludos
@Hect65 @Wallace_98 @Angelkaido
Es viernes por la noche y Teddy lo sabe....



Reventón o Movies Night!!    Saluuuuddd!!  
  'toy bien, mejor me voy a ver unas pelis.
@Guzanero Hect65
Wallace_98  aca ya estoy tomando pola (cerveza) y relajado para postearles cosas saludos  
@matoye Muchas gracias amigo,esa no la tengo, pero me suena el nombre,si la llego a encontrar te aviso,saludos  
@Angelkaido @Guzanero @Wallace_98   ,que tengan buena noche amigos,saludos  
Excelente aporte, gracias  
@SHEIN Muchas gracias ,saludos
@Sr.Satan gracias por pasar y por valorar este aporte ,saludos  
Amigo @biaoyuen18 muchas gracias por pasar amigo,un gusto compartir con ustedes,saludos cordiales  
@Cygnus muchas gracias amiga,saludos cordiales  
Muchas gracias amigo @yugiooohh por valorar este aporte,saludos cordiales  
@KingLuisXI si gustas puedes visitar este post amigo,saludos  
Muy buen aporte mi amigo muchas gracias que estés bien
@Duliori_28 Muchas gracias amigazo,que estés de lo mejor y gracias por valorar este aporte,saludos cordiales
Se nota un gran esfuerzo.Muchas gracias por compartirlo
@jerrylook muchas gracias,saludos  
@chitio2010 Muchas gracias amigo saludos  
Me encantaban estas peliculas. Gracias!
@mariano125  Muchas gracias,saludos  
Muchas gracias por valorar este aporte mi estimada amiga @FllorTV ,saludos cordiales  
excelente,gracias amigo por compartir,un saludo  
gracias por el aporte!
@cesarbbcc muchas gracias de nuevo mi amigo,saludos cordiales
gracias, esto debe ser TOP  
Gracias por tremendo trabajo.  
@totosme muchas gracias amigo,saludos  
@Instituto Muchas gracias amigo,se agradece tu visita y valoración al post,saludos cordiales  
Muchas gracias por la trilogía  
@LADY_BLUE   , Gracias por pasar amiga y por valorar el aporte,saludos cordiales y bendiciones para vos  
Para dejar un comentario Registrate! o.. eres ya usuario? Accede!
Facebook Identi