Hect65
"4 aportes más, y nada más!!!"
Oops.. Este post tiene los enlaces eliminados!

Identi revisa las denuncias de los usuarios en busca de enlaces eliminados que no dejan descargar los archivos, este mensaje te informa que este post que estas viendo tiene los enlaces eliminados.

Usa el Buscador

Por favor, te recomendamos que uses el buscador para encontrar más alternativas.

Trilogia : Super Agente ''K - 9'' HD - by Hect65

  • Categoría: Reciclaje
  • Publicado hace más de 5 meses

Trilogia : Super Agente K - 9 HD

''K -9'' 720p y 1080p


''Trial -Dual'' - by Hect65








Bueno amigos,hoy les traigo la saga completa

de Super Agente K - 9 ''K - Nine'',

bueno,dicen que ya salio otra pelí,

pero esta saga es para mi,

la saga completa.


Todo el trabajo de captura de audio

de la primer pelí, de sincronizado de audios y

subtitulos y todo el proceso que se llevo un sin

fin de tiempo para traerles hoy esta saga,


fue hecho por mi propia cuenta,para que se den

una idea de cuanto tarde

en reunir esta gradiosa saga ,tuve que esperar


2 años,si  así es,por que de poco en poco  fui

obteniendo los audios y teniendo en cuenta que


hace dos años ni sabia de que era la

sincronía de audios.


Bueno, al fin pude completar esta grandiosa

colección del perro ''Jerry Lee'' para traérselas

hoy, espero que la disfruten,y pues solo

responderé a quienes si valoren este valioso

 aporte,pues por lo que se antes,

ni en toda la red se encontraba en buena calida,
tanto de vídeo como de audio latino.




Comenzamos con la primer pelí de esta saga :




Super Agente ''K - 9'' 1080p Dual - by Hect65























Nota: el audio latino de esta pelí es una captura propia,

 

pues el audio que se encuentra en la web no me convenció

para añadirselo a esta pelí.


y la sincro.  de audio a la pelí  : 18 horas aprox.



Subtitulos en Es.Latino tuve que modificar muchas palabras,

pues estaba al español España y tenía algunas con lenguaje

que no se escucha del todo bien, ''se

le conoce como palabras obscenas''.



Info.de pelí :




Video

ID                          : 1
Format                      : AVC
Format/Info                 : Advanced Video Codec
Format profile              : [email protected]
Format settings, CABAC      : Yes
Format settings, ReFrames   : 4 frames
Codec ID                    : V_MPEG4/ISO/AVC
Duration                    : 1h 41mn
Nominal bit rate            : 2 500 Kbps
Width                       : 1 920 pixels
Height                      : 1 040 pixels
Format                      : Matroska
Format version              : Version 4 / Version 2
File size                   : 2.29 GiB
Duration                    : 1h 41mn
Overall bit rate            : 3 239 Kbps
Movie name                  : K - Nine (1989) 1080p .x264 Dual
Display aspect ratio        : 1.85:1
Frame rate mode             : Constant
Frame rate                  : 23.976 fps
Color space                 : YUV
Chroma subsampling          : 4:2:0
Bit depth                   : 8 bits
Scan type                   : Progressive
Bits/(Pixel*Frame)          : 0.052
Title                       : K - Nine (1989)
Writing library             : x264 core
Default                     : Yes
Forced                      : No



Audio #1
ID                          : 2
Format                      : AC-3
Format/Info                 : Audio Coding 3
Mode extension              : CM (complete main)
Format settings, Endianness : Big
Codec ID                    : A_AC3
Duration                    : 1h 41mn
Bit rate mode               : Constant
Bit rate                    : 512 Kbps
Channel(s)                  : 2 channels
Channel positions           : Front: L R
Sampling rate               : 48.0 KHz
Compression mode            : Lossy
Stream size                 : 371 MiB (16%)
Title                       : Audio : Latino
Language                    : Latin
Default                     : Yes
Forced                      : Yes



Audio #2
ID                          : 3
Format                      : AAC
Format/Info                 : Advanced Audio Codec
Format profile              : LC
Codec ID                    : A_AAC
Duration                    : 1h 41mn
Channel(s)                  : 2 channels
Channel positions           : Front: L R
Sampling rate               : 48.0 KHz
Compression mode            : Lossy
Title                       : Audio : Inglés
Language                    : English
Default                     : No
Forced                      : No



Text #1
ID                          : 4
Format                      : UTF-8
Codec ID                    : S_TEXT/UTF8
Codec ID/Info               : UTF-8 Plain Text
Title                       : Subt. Latino
Language                    : Latin
Default                     : No
Forced                      : No



Text #2
ID                          : 5
Format                      : UTF-8
Codec ID                    : S_TEXT/UTF8
Codec ID/Info               : UTF-8 Plain Text
Title                       : Subt. English
Language                    : English
Default                     : No
Forced                      : No









Info. de filmaffinity :










































Descarguen con MegaDownloader




[/links]
[/i]




Descarguen con ''mipony o Jdownloader''







Para los que no puedan descargar desde Mega :



''Alternative Cloud Mirror Links''



Descarguen Con ''Zippyshare''












Sin Password  



Superagente ''K-911'' [K - 911]

(1999) 1080p HD Trial Audio















Info. de pelí :


Format                      : Matroska
Format version              : Version 4 / Version 2
File size                   : 1.96 GiB
Duration                    : 1h 27mn
Overall bit rate            : 3 224 Kbps
Movie name                  : Superagente K-911 [K - 911] (1999) 1080p HD Movie
Encoded date                : UTC 2016-08-06
DURATION                    : 01:20:49


Video
ID                          : 1
Format                      : AVC
Format/Info                 : Advanced Video Codec
Format profile              : [email protected]
Format settings, CABAC      : No
Format settings, ReFrames   : 1 frame
Format settings, GOP        : M=1, N=25
Codec ID                    : V_MPEG4/ISO/AVC
Duration                    : 1h 27mn
Bit rate                    : 1 879 Kbps
Width                       : 1 920 pixels
Height                      : 1 080 pixels
Display aspect ratio        : 16:9
Frame rate mode             : Constant
Frame rate                  : 25.000 fps
Color space                 : YUV
Chroma subsampling          : 4:2:0
Bit depth                   : 8 bits
Scan type                   : Progressive
Bits/(Pixel*Frame)          : 0.036
Stream size                 : 1.15 GiB (58%)
Title                       : Superagente K-911 [K - 911] (1999) 1080p HD Dual Audio
Default                     : Yes
Forced                      : No



Audio #1
ID                          : 2
Format                      : AC-3
Format/Info                 : Audio Coding 3
Mode extension              : CM (complete main)
Format settings, Endianness : Big
Codec ID                    : A_AC3
Duration                    : 1h 27mn
Bit rate mode               : Constant
Bit rate                    : 512 Kbps
Channel(s)                  : 6 channels
Channel positions           : Front: L C R, Side: L R, LFE
Sampling rate               : 48.0 KHz
Compression mode            : Lossy
Stream size                 : 319 MiB (16%)
Title                       : Latino AC3
Language                    : Latin
Default                     : Yes
Forced                      : No



Audio #2
ID                          : 3
Format                      : AC-3
Format/Info                 : Audio Coding 3
Mode extension              : CM (complete main)
Format settings, Endianness : Big
Codec ID                    : A_AC3
Duration                    : 1h 27mn
Bit rate mode               : Constant
Bit rate                    : 512 Kbps
Channel(s)                  : 6 channels
Channel positions           : Front: L C R, Side: L R, LFE
Sampling rate               : 48.0 KHz
Compression mode            : Lossy
Stream size                 : 319 MiB (16%)
Title                       : Inglés AC3
Language                    : English
Default                     : No
Forced                      : No


Audio #3
ID                          : 4
Format                      : AC-3
Format/Info                 : Audio Coding 3
Mode extension              : CM (complete main)
Format settings, Endianness : Big
Codec ID                    : A_AC3
Duration                    : 1h 27mn
Bit rate mode               : Constant
Bit rate                    : 256 Kbps
Channel(s)                  : 6 channels
Channel positions           : Front: L C R, Side: L R, LFE
Sampling rate               : 48.0 KHz
Compression mode            : Lossy
Delay relative to video     : 23ms
Stream size                 : 160 MiB (8%)
Title                       : Russian AC3
Language                    : Russian
Default                     : No
Forced                      : No


Text #1
ID                          : 5
Format                      : UTF-8
Codec ID                    : S_TEXT/UTF8
Codec ID/Info               : UTF-8 Plain Text
Title                       : Sub.Latino
Language                    : Latin
Default                     : No
Forced                      : No


Text #2
ID                          : 6
Format                      : UTF-8
Codec ID                    : S_TEXT/UTF8
Codec ID/Info               : UTF-8 Plain Text
Title                       : Sub.Inglés
Language                    : English
Default                     : No
Forced                      : No




Info. de filmaffinity :





Se ve que es buena esta pelí,pues desde mayo la han subido a youtube

















































Descarguen con MegaDownloader




[/links]
[/i]



Descarguen con ''mipony o Jdownloader''







''Alternative Cloud Mirror Links''



Descarguen Con ''Zippyshare''









Sin Password  




Superagente ''K-9'' I.P.

[K-9 ; P I ] (2002) 720p Trial

Audio
























Info. de pelí :



Format                      : Matroska
Format version              : Version 4 / Version 2
File size                   : 1.95 GiB
Duration                    : 1h 34mn
Overall bit rate            : 2 936 Kbps
Movie name                  : Superagente K-9 I.P. [ K-9 ; P.I. ] (2002) 720p HD Movie
Encoded date                : UTC 2016-08-10 18:28:01

DURATION                    : 01:31:20


Video



ID                          : 1
Format                      : AVC
Format/Info                 : Advanced Video Codec
Format profile              : [email protected]
Format settings, CABAC      : Yes
Format settings, ReFrames   : 1 frame
Format settings, GOP        : M=1, N=60
Codec ID                    : V_MPEG4/ISO/AVC
Duration                    : 1h 34mn
Width                       : 1 280 pixels
Height                      : 694 pixels
Display aspect ratio        : 1.85:1
Frame rate mode             : Constant
Frame rate                  : 23.976 fps
Color space                 : YUV
Chroma subsampling          : 4:2:0
Bit depth                   : 8 bits
Scan type                   : Progressive
Title                       : Superagente K-9 I.P. [ K-9 ; P.I. ] (2002) 720p HD
Default                     : Yes
Forced                      : No



Audio #1


ID                          : 2
Format                      : AC-3
Format/Info                 : Audio Coding 3
Mode extension              : CM (complete main)
Format settings, Endianness : Big
Codec ID                    : A_AC3
Duration                    : 1h 34mn
Bit rate mode               : Constant
Bit rate                    : 512 Kbps
Channel(s)                  : 6 channels
Channel positions           : Front: L C R, Side: L R, LFE
Sampling rate               : 48.0 KHz
Compression mode            : Lossy
Stream size                 : 348 MiB (17%)
Title                       : Latino AC3
Language                    : Latin
Default                     : Yes
Forced                      : No



Audio #2


ID                          : 3
Format                      : AAC
Format/Info                 : Advanced Audio Codec
Format profile              : LC
Codec ID                    : A_AAC
Duration                    : 1h 34mn
Channel(s)                  : 2 channels
Channel positions           : Front: L R
Sampling rate               : 44.1 KHz
Compression mode            : Lossy
Title                       : Inglés AAC
Language                    : English
Default                     : No
Forced                      : No



Audio #3


ID                          : 4
Format                      : AC-3
Format/Info                 : Audio Coding 3
Mode extension              : CM (complete main)
Format settings, Endianness : Big
Codec ID                    : A_AC3
Duration                    : 1h 34mn
Bit rate mode               : Constant
Bit rate                    : 512 Kbps
Channel(s)                  : 6 channels
Channel positions           : Front: L C R, Side: L R, LFE
Sampling rate               : 48.0 KHz
Compression mode            : Lossy
Stream size                 : 348 MiB (17%)
Title                       : Inglés AC3 (Sonido Alto)
Language                    : English
Default                     : No
Forced                      : No



Audio #4


ID                          : 5
Format                      : AC-3
Format/Info                 : Audio Coding 3
Mode extension              : CM (complete main)
Format settings, Endianness : Big
Codec ID                    : A_AC3
Duration                    : 1h 34mn
Bit rate mode               : Constant
Bit rate                    : 512 Kbps
Channel(s)                  : 6 channels
Channel positions           : Front: L C R, Side: L R, LFE
Sampling rate               : 48.0 KHz
Compression mode            : Lossy
Stream size                 : 348 MiB (17%)
Title                       : Russian
Language                    : Russian
Default                     : No
Forced                      : No


Text


ID                          : 6
Format                      : UTF-8
Codec ID                    : S_TEXT/UTF8
Codec ID/Info               : UTF-8 Plain Text
Title                       : Sub.Inglés
Language                    : English
Default                     : No
Forced                      : No





Info. de filmaffinity :













































Descarguen con MegaDownloader






[/links]
[/b]




Descarguen con ''mipony o Jdownloader''









''Alternative Cloud Mirror Links''
descargar peliculas - descargar programas
0 Puntos Score: 0/10
Visitas: 74 Favoritos: 0
1 Comentarios Trilogia : Super Agente ''K - 9'' HD - by Hect65
Para dejar un comentario Registrate! o.. eres ya usuario? Accede!
Facebook Identi