hugohagg
"Comparto contenido en DVD5 alojados en ZS"

La Casa de la Esperanza (2017) 1080p LATiNO [ZS]

The Zookeeper's Wife (2017) 1080p LATiNO [ZS-UP]






Título original: The Zookeeper's Wife
Año: 2017
Duración: 127 min
País: Czech Republic, UK, USA
Director: Niki Caro
Escritor: Angela Workman (screenplay), Diane Ackerman (book)
Reparto: Jessica Chastain, Johan Heldenbergh, Daniel Brühl, Timothy Radford
Género: Drama,Historia

Sinopsis
Jan y Antonina Zabinski, el director del zoo de Varsovia y su esposa, ayudaron a salvar a cientos de personas (y también a muchos animales del Zoo) de los nazis tras la invasión de Polonia por las tropas alemanas en septiembre de 1939.


NFO
General
Unique ID                                : 111098486635967808314230673121415025686 (0x5394CA4BC80635EC7B80BE056DD45416)
Complete name                            : The Zookeepers Wife (2017) 1080p LAT.mkv
Format                                   : Matroska
Format version                           : Version 4 / Version 2
File size                                : 2.32 GiB
Duration                                 : 2 h 6 min
Overall bit rate                         : 2 621 kb/s
Movie name                               : The Zookeepers Wife (2017) 1080p LAT
Encoded date                             : UTC 2017-06-23 05:05:52
Writing application                      : mkvmerge v9.9.0 ('Pick Up') 64bit
Writing library                          : libebml v1.3.4 + libmatroska v1.4.5


Video
ID                                       : 1
Format                                   : AVC
Format/Info                              : Advanced Video Codec
Format profile                           : [email protected]
Format settings, CABAC                   : Yes
Format settings, ReFrames                : 4 frames
Codec ID                                 : V_MPEG4/ISO/AVC
Duration                                 : 2 h 6 min
Bit rate                                 : 2 050 kb/s
Width                                    : 1 920 pixels
Height                                   : 800 pixels
Display aspect ratio                     : 2.40:1
Frame rate mode                          : Constant
Frame rate                               : 23.976 (24000/1001) FPS
Color space                              : YUV
Chroma subsampling                       : 4:2:0
Bit depth                                : 8 bits
Scan type                                : Progressive
Bits/(Pixel*Frame)                       : 0.056
Stream size                              : 1.81 GiB (78%)
Title                                    : The Zookeepers Wife (2017) 1080p LAT - ZeiZ
Writing library                          : x264 core 148
Language                                 : English
Default                                  : Yes
Forced                                   : No

Audio #1
ID                                       : 2
Format                                   : AC-3
Format/Info                              : Audio Coding 3
Format settings, Endianness              : Big
Codec ID                                 : A_AC3
Duration                                 : 2 h 6 min
Bit rate mode                            : Constant
Bit rate                                 : 448 kb/s
Channel(s)                               : 6 channels
Channel positions                        : Front: L C R, Side: L R, LFE
Sampling rate                            : 48.0 kHz
Frame rate                               : 31.250 FPS (1536 spf)
Bit depth                                : 16 bits
Compression mode                         : Lossy
Delay relative to video                  : -43 ms
Stream size                              : 405 MiB (17%)
Title                                    : Latino
Language                                 : Latin
Service kind                             : Complete Main
Default                                  : Yes
Forced                                   : No

Audio #2
ID                                       : 3
Format                                   : AAC
Format/Info                              : Advanced Audio Codec
Format profile                           : LC
Codec ID                                 : A_AAC
Duration                                 : 2 h 6 min
Bit rate                                 : 121 kb/s
Channel(s)                               : 2 channels
Channel positions                        : Front: L R
Sampling rate                            : 48.0 kHz
Frame rate                               : 46.875 FPS (1024 spf)
Compression mode                         : Lossy
Delay relative to video                  : -43 ms
Stream size                              : 109 MiB (5%)
Title                                    : Inglés
Language                                 : English
Default                                  : No
Forced                                   : No

Text #1
ID                                       : 4
Format                                   : UTF-8
Codec ID                                 : S_TEXT/UTF8
Codec ID/Info                            : UTF-8 Plain Text
Duration                                 : 1 h 55 min
Bit rate                                 : 0 b/s
Count of elements                        : 13
Stream size                              : 301 Bytes (0%)
Language                                 : Latin
Default                                  : Yes
Forced                                   : Yes

Text #2
ID                                       : 5
Format                                   : UTF-8
Codec ID                                 : S_TEXT/UTF8
Codec ID/Info                            : UTF-8 Plain Text
Duration                                 : 1 h 59 min
Bit rate                                 : 32 b/s
Count of elements                        : 903
Stream size                              : 28.9 KiB (0%)
Title                                    : Latino
Language                                 : Latin
Default                                  : No
Forced                                   : No





LINKS INTERCAMBIABLES
ZIPPYSHARE


UPTOBOX


1 LINK UPTOBOX



identiHU
descargar peliculas - descargar programas
15 Puntos Score: 7.5/10
Visitas: 2512 Favoritos: 1
Ver los usuarios que votaron...
2 Comentarios La Casa de la Esperanza (2017) 1080p LATiNO [ZS]
Muchísimas gracias! Parece una buena película!  
Para dejar un comentario Registrate! o.. eres ya usuario? Accede!
Facebook Identi