hugohagg
"Comparto contenido en 1080p-720p-DVD5 alojados en ZS"

Kong: Skull Island (2017) 1080p LATiNO (DUAL) [ZS]

Kong: Skull Island (2017) 1080p LATiNO [ZS]









Título original:
Kong: Skull Island
Año:
2017
Duración:
118 min
País:
USA, China, Australia, Canada
Director:
Jordan Vogt-Roberts
Escritor:
Dan Gilroy (screenplay), Max Borenstein (screenplay), Derek Connolly (screenplay), John Gatins (story by)
Reparto:
Tom Hiddleston, Samuel L. Jackson, Brie Larson, John C. Reilly
Productora:
Warner Bros.,Legendary Entertainment
Género:
Acción,Aventura,Fantasía

General
Complete name                            : /Kong - Skull Island (2017) 1080p LAT - ZeiZ/Kong - Skull Island (2017) 1080p LAT.mkv
Format                                   : Matroska
Format version                           : Version 4 / Version 2
File size                                : 2.13 GiB
Duration                                 : 1 h 58 min
Overall bit rate                         : 2 573 kb/s
Movie name                               : Kong - Skull Island (2017) 1080p LATINO
Encoded date                             : UTC 2017-06-26 06:13:09
Writing application                      : mkvmerge v9.9.0 ('Pick Up') 64bit
Writing library                          : libebml v1.3.4 + libmatroska v1.4.5

Video
ID                                       : 1
Format                                   : AVC
Format/Info                              : Advanced Video Codec
Format profile                           : [email protected]
Format settings, CABAC                   : Yes
Format settings, ReFrames                : 4 frames
Codec ID                                 : V_MPEG4/ISO/AVC
Duration                                 : 1 h 58 min
Bit rate                                 : 2 050 kb/s
Width                                    : 1 920 pixels
Height                                   : 800 pixels
Display aspect ratio                     : 2.40:1
Frame rate mode                          : Constant
Frame rate                               : 23.976 (24000/1001) FPS
Color space                              : YUV
Chroma subsampling                       : 4:2:0
Bit depth                                : 8 bits
Scan type                                : Progressive
Bits/(Pixel*Frame)                       : 0.056
Stream size                              : 1.70 GiB (80%)
Title                                    : Kong - Skull Island (2017) 1080p LAT - ZeiZ
Writing library                          : x264 core 148
Language                                 : English
Default                                  : Yes
Forced                                   : No

Audio #1
ID                                       : 2
Format                                   : AC-3
Format/Info                              : Audio Coding 3
Format settings, Endianness              : Big
Codec ID                                 : A_AC3
Duration                                 : 1 h 58 min
Bit rate mode                            : Constant
Bit rate                                 : 384 kb/s
Channel(s)                               : 6 channels
Channel positions                        : Front: L C R, Side: L R, LFE
Sampling rate                            : 48.0 kHz
Frame rate                               : 31.250 FPS (1536 spf)
Bit depth                                : 16 bits
Compression mode                         : Lossy
Delay relative to video                  : 957 ms
Stream size                              : 325 MiB (15%)
Title                                    : Latino
Language                                 : Latin
Service kind                             : Complete Main
Default                                  : Yes
Forced                                   : No

Audio #2
ID                                       : 3
Format                                   : AAC
Format/Info                              : Advanced Audio Codec
Format profile                           : LC
Codec ID                                 : A_AAC
Duration                                 : 1 h 58 min
Bit rate                                 : 136 kb/s
Channel(s)                               : 2 channels
Channel positions                        : Front: L R
Sampling rate                            : 48.0 kHz
Frame rate                               : 46.875 FPS (1024 spf)
Compression mode                         : Lossy
Delay relative to video                  : -43 ms
Stream size                              : 115 MiB (5%)
Title                                    : Inglés
Language                                 : English
Default                                  : No
Forced                                   : No

Text #1
ID                                       : 4
Format                                   : UTF-8
Codec ID                                 : S_TEXT/UTF8
Codec ID/Info                            : UTF-8 Plain Text
Duration                                 : 1 h 57 min
Bit rate                                 : 1 b/s
Count of elements                        : 37
Stream size                              : 971 Bytes (0%)
Language                                 : Latin
Default                                  : Yes
Forced                                   : Yes

Text #2
ID                                       : 5
Format                                   : UTF-8
Codec ID                                 : S_TEXT/UTF8
Codec ID/Info                            : UTF-8 Plain Text
Duration                                 : 1 h 57 min
Bit rate                                 : 46 b/s
Count of elements                        : 1280
Stream size                              : 40.1 KiB (0%)
Title                                    : Latino
Language                                 : Latin
Default                                  : No
Forced                                   : No








ES CALIDAD FINAL DEL BLURAY, NO ES LA VERSION WEB-DL


ZIPPYSHARE

UPTOBOX

1 LINK UPTOBOX


identi
peliculas - programas
55 Puntos Score: 9.2/10
Visitas: 2625 Favoritos: 3
Ver los usuarios que votaron...
12 Comentarios Kong: Skull Island (2017) 1080p LATiNO (DUAL) [ZS]
Gracias amigazo  
Gracias Hugo  
Cita yosbel: Mostrar

Cita pericos: Mostrar

Cita yeyu262: Mostrar
Gracias por pasar   saludos  
Gracias por la movie saludos
me pide clave y la que esta no me pesca
@yonathanc
Cita yonathanc: Mostrar
La clave es identi inténtalo otra vez
Muchas gracias
Cita servic23: Mostrar
denada a disfrutar la peli
falta el enlace 12..me dejaste en panne.
Para dejar un comentario Registrate! o.. eres ya usuario? Accede!
Facebook Identi