Piratas del Caribe 5 mejor calidad (Dual) MG

Piratas del Caribe 5 mejor calidad









Piratas del Caribe: La Venganza de Salazar


Título Original: Pirates of the Caribbean Dead Men Tell No Tales
En otros países: Salazar's Revenge
Fecha de estreno: 11 de mayo de 2017 (Shanghái) 26 de mayo estreno mundial
Directores: Joachim Rønning, Espen Sandberg
Música compuesta por: Geoff Zanelli
Guion: Jeff Nathanson
Historia de: Jeff Nathanson, Ted Elliott, Stuart Beattie, Jay Wolpert, Terry Rossio
Protagonistas Johnny Depp, Javier Bardem, Geoffrey Rush, Brenton Thwaites, Kaya Scodelario, Kevin McNally y Orlando Bloom.






SINOPSIS
El Capitán Jack Sparrow se ve acechado por los vientos de la mala fortuna cuando su antiguo nemesis, el terrorífico Capitán Salazar, antaño el mayor cazador de piratas que alguna vez existió, logra escapar junto a su tripulación de fantasmas del Triangulo del Diablo con un solo propósito, acabar con todo pirata que se interponga en su camino, siendo su objetivo principal el Capitán Jack Sparrow. La única esperanza de Jack reside en el legendario Tridente de Poseidón, un artefacto que le da a su poseedor el control sobre los mares, pero para encontrarlo tendrá que formar una complicada alianza con Carina Smith una brillante astrónoma, y Hery Turner, un ex miembro de la Marina Real que busca deshacer la maldición que pesa sobre su padre.















INFORMACIÓN GENERAL
Formato: MKV
Audio: Dual (Latino e Ingles) calidad cine
Tamaño: 2.60GB
Subtitulos: olvide añadirlos al multiplexar
Resolución: 880 x 388
Duración: 1h58m


Pirates of the Caribbean Dead Men Tell No Tales Dual.mkv
Format                      : Matroska
Format version              : Version 4 / Version 2
File size                   : 2.59 GiB
Duration                    : 1 h 58 min
Overall bit rate mode       : Variable
Overall bit rate            : 3 141 kb/s
Movie name                  : Pirates of the Caribbean - Dead Men Tell No Tales
Encoded date                : UTC 2017-06-23 00:24:05
Writing application         : mkvmerge v12.0.0 ('Trust / Lust') 64bit
Writing library             : libebml v1.3.4 + libmatroska v1.4.5

Video
ID                          : 1
Format                      : AVC
Format/Info                 : Advanced Video Codec
Format profile              : [email protected]
Format settings, CABAC      : Yes
Format settings, ReFrames   : 4 frames
Codec ID                    : V_MPEG4/ISO/AVC
Duration                    : 1 h 58 min
Bit rate mode               : Variable
Bit rate                    : 2 500 kb/s
Maximum bit rate            : 62.5 Mb/s
Width                       : 880 pixels
Height                      : 388 pixels
Display aspect ratio        : 2.25:1
Frame rate mode             : Constant
Frame rate                  : 25.000 FPS
Color space                 : YUV
Chroma subsampling          : 4:2:0
Bit depth                   : 8 bits
Scan type                   : Progressive
Bits/(Pixel*Frame)          : 0.293
Stream size                 : 2.06 GiB (80%)
Writing library             : x264 core 148 r2744 b97ae06
Encoding settings           : cabac=1 / ref=5 / deblock=1:0:0 / analyse=0x3:0x133 / me=umh / subme=9 / psy=1 / psy_rd=1.00:0.00 / mixed_ref=1 / me_range=18 / chroma_me=1 / trellis=2 / 8x8dct=1 / cqm=0 / deadzone=21,11 / fast_pskip=0 / chroma_qp_offset=-2 / threads=16 / lookahead_threads=1 / sliced_threads=0 / slices=4 / nr=0 / decimate=1 / interlaced=0 / bluray_compat=0 / constrained_intra=0 / bframes=3 / b_pyramid=1 / b_adapt=2 / b_bias=0 / direct=3 / weightb=1 / open_gop=0 / weightp=2 / keyint=250 / keyint_min=25 / scenecut=40 / intra_refresh=0 / rc_lookahead=40 / rc=abr / mbtree=1 / bitrate=2500 / ratetol=1.0 / qcomp=0.60 / qpmin=10 / qpmax=51 / qpstep=4 / vbv_maxrate=62500 / vbv_bufsize=78125 / nal_hrd=vbr / filler=0 / ip_ratio=1.40 / aq=1:1.00
Default                     : Yes
Forced                      : No
Color range                 : Full
Color primaries             : BT.709
Transfer characteristics    : BT.709
Matrix coefficients         : BT.709

Audio #1
ID                          : 2
Format                      : MPEG Audio
Format version              : Version 1
Format profile              : Layer 3
Codec ID                    : A_MPEG/L3
Codec ID/Hint               : MP3
Duration                    : 1 h 58 min
Bit rate mode               : Constant
Bit rate                    : 192 kb/s
Channel(s)                  : 2 channels
Sampling rate               : 44.1 kHz
Frame rate                  : 38.281 FPS (1152 spf)
Compression mode            : Lossy
Delay relative to video     : 11 ms
Stream size                 : 162 MiB (6%)
Title                       : English V
Language                    : English
Default                     : No
Forced                      : No

Audio #2
ID                          : 3
Format                      : AAC
Format/Info                 : Advanced Audio Codec
Format profile              : LC
Codec ID                    : A_AAC
Duration                    : 1 h 58 min
Bit rate                    : 128 kb/s
Channel(s)                  : 2 channels
Channel positions           : Front: L R
Sampling rate               : 44.1 kHz
Frame rate                  : 43.066 FPS (1024 spf)
Compression mode            : Lossy
Stream size                 : 108 MiB (4%)
Title                       : English C
Language                    : English
Default                     : No
Forced                      : No

Audio #3
ID                          : 4
Format                      : MPEG Audio
Format version              : Version 1
Format profile              : Layer 3
Mode                        : Joint stereo
Codec ID                    : A_MPEG/L3
Codec ID/Hint               : MP3
Duration                    : 1 h 58 min
Bit rate mode               : Constant
Bit rate                    : 320 kb/s
Channel(s)                  : 2 channels
Sampling rate               : 48.0 kHz
Frame rate                  : 41.667 FPS (1152 spf)
Compression mode            : Lossy
Delay relative to video     : 8 ms
Stream size                 : 271 MiB (10%)
Title                       : Latino C
Writing library             : LAME3.99.5
Language                    : Spanish
Default                     : Yes
Forced                      : No











Sin contraseña


PD: Es mi primer post así que cualquier error indicarlo en comentarios, y si es posible lo arreglaré
peliculas - programas
177 Puntos Score: 8.4/10
Visitas: 9137 Favoritos: 7
Ver los usuarios que votaron...
Más del Autor...
No se encontraron más posts
31 Comentarios Piratas del Caribe 5 mejor calidad (Dual) MG
Compañero falto poner mas info como si tiene subtitulos,calidad del video etc..gracias por la peli  
@dark72 de nada, y gracias por ayudarme a mejorar el post
Primero que nada, bienvenido a IDENTI. Segundo (ya viene el garrotazo), por favor, agrega más información del Video (Resolución, Duración).  
Excelente amigo muchas gracias por el aporte sigue asi,  
hola tiene buen sonido?
+10. Hechale ganas. Felicidades y Bienvenido.
Bienvenido a la comunidad, van +10 para ayudarte  
si esas son las capturas ennces se ve muy bien para ser nueva gracias
amigo te recomiendo que uses el servidor de google drive  por los que no podemos descargar de mega
bienvenido +10,,,saludos  
Ahí te van mis primeros +10 puntos. No olvides amigo, esto es un concejo de un viejo uploader, mientras mas rico en información sea tu post mucho mejor será.  
instala MediaInfo para obtener todos los datos sobre el archivo
https://mediaarea.net/es/MediaInfo
@LASZChile2 gracias, y ya le agregue mas   -Garrotazos everywhere:P-
@catari gracias por visitar el post  
@tony78ar  es calidad de cine, el audio latino es el que viene circulando en la web desde que salió la peli, tiene ademas 2 versiones en ingles, una donde se enfoca mucho la voz(un efecto que me gusta pero no se disfruta la OST), y venía por defecto con el archivo de video original, y otra versión de cine se escucha normal, el detalle es que al multiplexar olvide los subtitulos así que se los debo xD
@lLanister gracias por visitar, el apoyo y por los puntos  
@jkmario18 muchas gracias por visitar el post y por los puntos  
@marlorambo de nada, y pues hace unas semanas subieron en esta pagina una versión que viene de esta fuente, pero tenia mas baja calidad, me enteré de esta versión hace un par de días y me puse manos a la obra, gracias por visitar el post  
@Luffy009  lo tomaré en cuenta, lo subiría a otros servidores pero mega es con el que mas experiencia tengo, gracias por visitar el post  
@reychek gracias por el apoyo por visitar el post y por los puntos  
@Shadow729 Gracias por el apoyo, por los sagrados puntos, y, por el aún mas sagrado consejo, lo tendré muy en cuenta  
gracias por el aporte bajando......
Gracias,  
gracias por compartir amigo, un saludo y bienvenidos tus aportes
@Cainn lo haré gracias por la recomendación
@yosbel de nada, disfrutala  
@edu_k de nada, gracias por pasar  
@cesarbbcc que la disfrutes
y una vez mas gracias a todos por visitar el post, por los puntos, y por los mensajes de bienvenida  
el garrotazo...hahahahaha...veamos q tal ese video/audio  
Si funciona megadownloader  pero con el mozilla 40 anterior y el idm numero 25 y funca..
gracias, es la mejor calidad que hay por el momento. Si quieren los subtítulos en español, el amigo danilo los tiene en este post http://www.identi.li/index.php?topic=471158
saludos  
@radamez69  
@yrs710 no hay mejor manera de dar una bienvenida XD
@PochitoXD  gracias por visitar el post
@service gracias por visitar el post y por los puntillos  
@invictor gracias por visitar el post, me parece que aun tengo los subtitulos para esta versión, en un rato mas los subo
Gracias a todos por visitar y por los puntos espero disfruten la peli
hola, primero que todo te quiero agradecer por subir la pelicula, lo que te queria pedir es que si me puedes dar el link de la película por interno es que ya en jdownloader me sale que he excedido mi limite de banda en mega y que tengo que espera 8 horas y cuando pasan las 8 horas vuelve y sale  
@danieled96 amigo agrega los enlaces al jdownloader, una vez listos, le das click derecho y en CREAR DLC le das ahi, le das guardar en escritorio, una vez hecho esto ve al megadownloader y en ARCHIVO le das agregar dlc y lo buscas en escritorio, esperas unos segundos y listo, se te agregan los enlaces al megadownloader y ya puedes descargar con toda tranquilidad
@RR_JR  muchas gracias por el aporte   descargando
Gracias por compartir
Bienvenido a la comunidad... gracias por el esfuerzo del aporte... te sigo y van puntos para animarte... sigue así...
Gracias por el aporte. Si son las capturas, pues si que se ve mejor que los demas. Un saludo  
bajando,gracias!
gracias, por tu post, pero seria bueno, poder poner le enlace directamente y no, que lo suba automaticamente jdownloader, ya que muchos usamos megadowloader .
Para dejar un comentario Registrate! o.. eres ya usuario? Accede!
Facebook Identi