Fringe Serie Completa [Dual][1080P][Mega-Uptobox]


Fringe (en España Fringe: Al límite, también conocida por sus títulos alternativos Fringe: La gran conspiración y Ciencia al límite) es una serie de ciencia ficción estadounidense creada por J. J. Abrams, Alex Kurtzman y Roberto Orci. Se estrenó a través de Fox Broadcasting Company el 9 de septiembre de 2008 y terminó el 18 de enero de 2013 después de cien episodios recopilados en cinco temporadas. La serie sigue a Olivia Dunham (Anna Torv), Peter Bishop (Joshua Jackson) y Walter Bishop (John Noble), quienes son miembros de la División Fringe de la Oficina Federal de Investigación cuya base se encuentra en Boston, Estados Unidos, bajo órdenes del Departamento de Seguridad Nacional. El equipo utiliza métodos de la ciencia fringe para ayudar al FBI a investigar diversos casos inexplicables, a menudo horribles, que están relacionados con un misterioso universo paralelo. La serie ha sido considerada como una mezcla entre The X-Files, Altered States y The Twilight Zone.

Fringe combina el formato de casos de la semana con una historia relevante de trasfondo. Comenzó con los tradicionales «misterios de la semana» y poco a poco formó su propia mitología donde dejó atrás aquellos episodios en posteriores temporadas. La mayoría de los episodios contienen una trama independiente a la general pero también varios episodios han explorado la mitología general de la serie.

La recepción de la crítica durante la primera temporada fue tibia, pero con el avance de las temporadas se hizo más favorable debido a que se comenzó a explorar su mitología, como el universo paralelo y la línea de tiempo alternativa. La serie, así como el reparto, ha sido nominada para varios premios importantes. A pesar de su traslado a «la maldición del viernes por la noche» y los bajos niveles de audiencias, tiene seguidores de culto. La serie también ha dado paso a dos series de comic book de seis partes y un juego de realidad alternativa.


DETALLE INFORMATIVO DE LOS ARCHIVOS:

Formato: Mkv
Tamaño:  1.70 GB – 2.10 GB  Aprox. por Capítulo (Solo el primer capítulo ocupa más porque dura mas tiempo que los demás)
Calidad: BrRip 1080p
Resolución: 1920 x 1080P
Audio Dual: Español Castellano - Inglés  
Subtítulos: Español - Inlgés
Codec: X264


Información mas detallada:

General
Format                      : Matroska
Format version              : Version 4 / Version 2
File size                   : 3.33 GiB
Duration                    : 1h 21mn
Overall bit rate            : 5 833 Kbps

Video
ID                          : 1
Format                      : AVC
Format/Info                 : Advanced Video Codec
Format profile              : [email protected]
Format settings, CABAC      : Yes
Format settings, ReFrames   : 4 frames
Codec ID                    : V_MPEG4/ISO/AVC
Duration                    : 1h 21mn
Bit rate                    : 5 000 Kbps
Width                       : 1 920 pixels
Height                      : 1 080 pixels
Display aspect ratio        : 16:9
Frame rate mode             : Constant
Frame rate                  : 23.976 fps
Color space                 : YUV
Chroma subsampling          : 4:2:0
Bit depth                   : 8 bits
Scan type                   : Progressive
Bits/(Pixel*Frame)          : 0.101
Stream size                 : 2.79 GiB (84%)
Title                       : Fringe 1x01 Piloto
Writing library             : x264 core 138 r2358 9e941d1
Encoding settings           : cabac=1 / ref=4 / deblock=1:0:0 / analyse=0x3:0x113 / me=hex / subme=8 / psy=1 / psy_rd=1.00:0.00 / mixed_ref=0 / me_range=16 / chroma_me=1 / trellis=2 / 8x8dct=1 / cqm=0 / deadzone=21,11 / fast_pskip=0 / chroma_qp_offset=-2 / threads=3 / lookahead_threads=1 / sliced_threads=0 / nr=0 / decimate=0 / interlaced=0 / bluray_compat=0 / constrained_intra=0 / bframes=3 / b_pyramid=2 / b_adapt=2 / b_bias=0 / direct=3 / weightb=1 / open_gop=0 / weightp=2 / keyint=250 / keyint_min=23 / scenecut=40 / intra_refresh=0 / rc_lookahead=40 / rc=2pass / mbtree=1 / bitrate=5000 / ratetol=1.0 / qcomp=0.60 / qpmin=0 / qpmax=69 / qpstep=4 / cplxblur=20.0 / qblur=0.5 / vbv_maxrate=62500 / vbv_bufsize=78125 / nal_hrd=none / ip_ratio=1.40 / aq=1:1.00
Language                    : English
Default                     : Yes
Forced                      : No
Color range                 : Limited
Color primaries             : BT.709
Transfer characteristics    : BT.709
Matrix coefficients         : BT.709

Audio #1
ID                          : 2
Format                      : AC-3
Format/Info                 : Audio Coding 3
Format profile              : Dolby Digital
Mode extension              : CM (complete main)
Format settings, Endianness : Big
Codec ID                    : A_AC3
Duration                    : 1h 21mn
Bit rate mode               : Constant
Bit rate                    : 192 Kbps
Channel(s)                  : 2 channels
Channel positions           : Front: L R
Sampling rate               : 48.0 KHz
Compression mode            : Lossy
Stream size                 : 112 MiB (3%)
Title                       : Español AC3 2.0 @ 192 Kbps
Language                    : Spanish
Default                     : Yes
Forced                      : No

Audio #2
ID                          : 3
Format                      : AC-3
Format/Info                 : Audio Coding 3
Mode extension              : CM (complete main)
Format settings, Endianness : Big
Codec ID                    : A_AC3
Duration                    : 1h 21mn
Bit rate mode               : Constant
Bit rate                    : 640 Kbps
Channel(s)                  : 6 channels
Channel positions           : Front: L C R, Side: L R, LFE
Sampling rate               : 48.0 KHz
Compression mode            : Lossy
Stream size                 : 374 MiB (11%)
Title                       : Inglés AC3 5.1 @ 640 Kbps
Language                    : English
Default                     : No
Forced                      : No

Text #1
ID                          : 4
Format                      : UTF-8
Codec ID                    : S_TEXT/UTF8
Codec ID/Info               : UTF-8 Plain Text
Title                       : Español Forzados
Language                    : Spanish
Default                     : No
Forced                      : Yes

Text #2
ID                          : 5
Format                      : UTF-8
Codec ID                    : S_TEXT/UTF8
Codec ID/Info               : UTF-8 Plain Text
Title                       : Español
Language                    : Spanish
Default                     : Yes
Forced                      : No

Text #3
ID                          : 6
Format                      : UTF-8
Codec ID                    : S_TEXT/UTF8
Codec ID/Info               : UTF-8 Plain Text
Title                       : Inglés
Language                    : English
Default                     : No
Forced                      : No















SOLO MEGADOWNLOADER
Enlaces De Descarga














SOLO MEGADOWNLOADER
Enlaces De Descarga


























SOLO MEGADOWNLOADER
Enlaces De Descarga

























SOLO MEGADOWNLOADER
Enlaces De Descarga



























SOLO MEGADOWNLOADER
Enlaces De Descarga






peliculas - programas
152 Puntos Score: 8.4/10
Visitas: 1338 Favoritos: 9
Ver los usuarios que votaron...
23 Comentarios Fringe Serie Completa [Dual][1080P][Mega-Uptobox]
carambolas!! ya me va tocar usar la cuenta premium de uptobox... jejeje.. tremendo aportazo... tendrás o vas a postear en 720p o no... porque ufff... tremendos tamaños por episodio... saludos
WOW!
Te pasaste.
Gracias!!!!
 
Fantástico, estaba buscándola en español, muchas gracias, ahora con la limitación de Mega a ver cuanto tiempo tardo en bajarla jejejeje  
excelente aporte, gracias  
@FertDrkw Gracias por pasarte. Los tengo pero en inglés, 1080p, x265, en formato.m4v y en el servidor uptobox y 1fichier. Si te interesa te mando MP. Saludos.
@jmerazs Gracias por pasarte, por el momento sólo puedo postear en esos servidores. Hasta que haya uno mejor veremos. Saludos.
yo quiero el bluray full!
@sar63ar bruto aporte muchas gracias.......una pregunta estan en X264 o X265???
Gran aporte @sar63ar, podrias, subir los audios castellano talvez?
@batoy009 Gracias por pasarte, están en x264. Saludos.
@grounder16 Gracias por pasarte, los audios se extraen con el mkvextract? No estoy muy en el tema pero veo que puedo hacer. Saludos.
@SnakeJhon Yo también lo quiero, pero no lo pude conseguir en la web Una lástima pero conseguí este que es algo jeje. Saludos.
@sar63ar MKVCleaver es un buen software de extraccion de audio, video, subtitulos
@grounder16 Lo voy a probar a ver que tal me va y te aviso. Saludos.
aunque ahorita no me ponga a descargarla, te agradezco el excelente aporte y el esfuerzo, pase mucho buscando esta serie, saludos amigo
Ohh UPS en ese códec x265 aún no es de mi agrado... Esta versión que has compartido es ideal, aunque lleva tiempo para bajarla, creo que me llevará diez días en tenerla completa.... Saludos.. +50
Tremendo aportazo esta serie veo en comentarios que tienes enlaces en x265 a mi me interesa si me los pasas te agradezco alli te deje +10
@LepuP2009 Gracias por pasarte y cuando la descargues, espero que la disfrutes. Saludos.
@grounder16 MP enviado. Saludos.
@LordOfKaos MP enviado. Saludos.
@sar63ar ¿que tal van mis peticiones?
@tarzerix Diculpame, pero estoy con temas personales que tengo que solucionar y cuando pueda, seguiré con pedidos pendientes. Espero que no te molestes y me comprendas. Saludos y cuando tenga algo ya lo vas a saber.  
Gracias nuevamente, al momento he terminado de bajar todas las temporadas.... +10 al post.... +50 en total, diez por cada temporada..... Saludos
cuando vi dual, pensé en latino   ni modo creo que será en inglés xD
gracias
Grande , Grande , muy agradecido , gracias.
Gracias por tan excelente aporte...muy bueno.
Para dejar un comentario Registrate! o.. eres ya usuario? Accede!
Facebook Identi